  0
SECTION
  2
HEADER
  9
$ACADVER
  1
AC1018
  9
$ACADMAINTVER
 70
     0
  9
$DWGCODEPAGE
  3
ANSI_1252
  9
$INSBASE
 10
0.0
 20
0.0
 30
0.0
  9
$EXTMIN
 10
-245.5582048705012
 20
6.36377325733469
 30
0.0
  9
$EXTMAX
 10
51.44179512949688
 20
216.3637732573348
 30
0.0
  9
$LIMMIN
 10
0.0
 20
0.0
  9
$LIMMAX
 10
12.0
 20
9.0
  9
$ORTHOMODE
 70
     0
  9
$REGENMODE
 70
     1
  9
$FILLMODE
 70
     1
  9
$QTEXTMODE
 70
     0
  9
$MIRRTEXT
 70
     1
  9
$LTSCALE
 40
1.0
  9
$ATTMODE
 70
     1
  9
$TEXTSIZE
 40
0.2
  9
$TRACEWID
 40
0.05
  9
$TEXTSTYLE
  7
Standard
  9
$CLAYER
  8
0
  9
$CELTYPE
  6
ByLayer
  9
$CECOLOR
 62
   256
  9
$CELTSCALE
 40
1.0
  9
$DISPSILH
 70
     0
  9
$DIMSCALE
 40
1.0
  9
$DIMASZ
 40
0.18
  9
$DIMEXO
 40
0.0625
  9
$DIMDLI
 40
0.38
  9
$DIMRND
 40
0.0
  9
$DIMDLE
 40
0.0
  9
$DIMEXE
 40
0.18
  9
$DIMTP
 40
0.0
  9
$DIMTM
 40
0.0
  9
$DIMTXT
 40
0.18
  9
$DIMCEN
 40
0.09
  9
$DIMTSZ
 40
0.0
  9
$DIMTOL
 70
     0
  9
$DIMLIM
 70
     0
  9
$DIMTIH
 70
     1
  9
$DIMTOH
 70
     1
  9
$DIMSE1
 70
     0
  9
$DIMSE2
 70
     0
  9
$DIMTAD
 70
     0
  9
$DIMZIN
 70
     0
  9
$DIMBLK
  1

  9
$DIMASO
 70
     1
  9
$DIMSHO
 70
     1
  9
$DIMPOST
  1

  9
$DIMAPOST
  1

  9
$DIMALT
 70
     0
  9
$DIMALTD
 70
     2
  9
$DIMALTF
 40
25.4
  9
$DIMLFAC
 40
1.0
  9
$DIMTOFL
 70
     0
  9
$DIMTVP
 40
0.0
  9
$DIMTIX
 70
     0
  9
$DIMSOXD
 70
     0
  9
$DIMSAH
 70
     0
  9
$DIMBLK1
  1

  9
$DIMBLK2
  1

  9
$DIMSTYLE
  2
Standard
  9
$DIMCLRD
 70
     0
  9
$DIMCLRE
 70
     0
  9
$DIMCLRT
 70
     0
  9
$DIMTFAC
 40
1.0
  9
$DIMGAP
 40
0.09
  9
$DIMJUST
 70
     0
  9
$DIMSD1
 70
     0
  9
$DIMSD2
 70
     0
  9
$DIMTOLJ
 70
     1
  9
$DIMTZIN
 70
     0
  9
$DIMALTZ
 70
     0
  9
$DIMALTTZ
 70
     0
  9
$DIMUPT
 70
     0
  9
$DIMDEC
 70
     4
  9
$DIMTDEC
 70
     4
  9
$DIMALTU
 70
     2
  9
$DIMALTTD
 70
     2
  9
$DIMTXSTY
  7
Standard
  9
$DIMAUNIT
 70
     0
  9
$DIMADEC
 70
     0
  9
$DIMALTRND
 40
0.0
  9
$DIMAZIN
 70
     0
  9
$DIMDSEP
 70
    46
  9
$DIMATFIT
 70
     3
  9
$DIMFRAC
 70
     0
  9
$DIMLDRBLK
  1

  9
$DIMLUNIT
 70
     2
  9
$DIMLWD
 70
    -2
  9
$DIMLWE
 70
    -2
  9
$DIMTMOVE
 70
     0
  9
$LUNITS
 70
     2
  9
$LUPREC
 70
     4
  9
$SKETCHINC
 40
0.1
  9
$FILLETRAD
 40
0.5
  9
$AUNITS
 70
     0
  9
$AUPREC
 70
     0
  9
$MENU
  1
.
  9
$ELEVATION
 40
0.0
  9
$PELEVATION
 40
0.0
  9
$THICKNESS
 40
0.0
  9
$LIMCHECK
 70
     0
  9
$CHAMFERA
 40
0.0
  9
$CHAMFERB
 40
0.0
  9
$CHAMFERC
 40
0.0
  9
$CHAMFERD
 40
0.0
  9
$SKPOLY
 70
     0
  9
$TDCREATE
 40
2458879.453182003
  9
$TDUCREATE
 40
2458879.411515336
  9
$TDUPDATE
 40
2458879.453182373
  9
$TDUUPDATE
 40
2458879.411515706
  9
$TDINDWG
 40
0.0000000116
  9
$TDUSRTIMER
 40
0.0000000116
  9
$USRTIMER
 70
     1
  9
$ANGBASE
 50
0.0
  9
$ANGDIR
 70
     0
  9
$PDMODE
 70
     0
  9
$PDSIZE
 40
0.0
  9
$PLINEWID
 40
0.0
  9
$SPLFRAME
 70
     0
  9
$SPLINETYPE
 70
     6
  9
$SPLINESEGS
 70
     8
  9
$HANDSEED
  5
386
  9
$SURFTAB1
 70
     6
  9
$SURFTAB2
 70
     6
  9
$SURFTYPE
 70
     6
  9
$SURFU
 70
     6
  9
$SURFV
 70
     6
  9
$UCSBASE
  2

  9
$UCSNAME
  2

  9
$UCSORG
 10
0.0
 20
0.0
 30
0.0
  9
$UCSXDIR
 10
1.0
 20
0.0
 30
0.0
  9
$UCSYDIR
 10
0.0
 20
1.0
 30
0.0
  9
$UCSORTHOREF
  2

  9
$UCSORTHOVIEW
 70
     0
  9
$UCSORGTOP
 10
0.0
 20
0.0
 30
0.0
  9
$UCSORGBOTTOM
 10
0.0
 20
0.0
 30
0.0
  9
$UCSORGLEFT
 10
0.0
 20
0.0
 30
0.0
  9
$UCSORGRIGHT
 10
0.0
 20
0.0
 30
0.0
  9
$UCSORGFRONT
 10
0.0
 20
0.0
 30
0.0
  9
$UCSORGBACK
 10
0.0
 20
0.0
 30
0.0
  9
$PUCSBASE
  2

  9
$PUCSNAME
  2

  9
$PUCSORG
 10
0.0
 20
0.0
 30
0.0
  9
$PUCSXDIR
 10
1.0
 20
0.0
 30
0.0
  9
$PUCSYDIR
 10
0.0
 20
1.0
 30
0.0
  9
$PUCSORTHOREF
  2

  9
$PUCSORTHOVIEW
 70
     0
  9
$PUCSORGTOP
 10
0.0
 20
0.0
 30
0.0
  9
$PUCSORGBOTTOM
 10
0.0
 20
0.0
 30
0.0
  9
$PUCSORGLEFT
 10
0.0
 20
0.0
 30
0.0
  9
$PUCSORGRIGHT
 10
0.0
 20
0.0
 30
0.0
  9
$PUCSORGFRONT
 10
0.0
 20
0.0
 30
0.0
  9
$PUCSORGBACK
 10
0.0
 20
0.0
 30
0.0
  9
$USERI1
 70
     0
  9
$USERI2
 70
     0
  9
$USERI3
 70
     0
  9
$USERI4
 70
     0
  9
$USERI5
 70
     0
  9
$USERR1
 40
20.1
  9
$USERR2
 40
0.0
  9
$USERR3
 40
0.0
  9
$USERR4
 40
0.0
  9
$USERR5
 40
0.0
  9
$WORLDVIEW
 70
     1
  9
$SHADEDGE
 70
     3
  9
$SHADEDIF
 70
    70
  9
$TILEMODE
 70
     1
  9
$MAXACTVP
 70
    64
  9
$PINSBASE
 10
0.0
 20
0.0
 30
0.0
  9
$PLIMCHECK
 70
     0
  9
$PEXTMIN
 10
1.00000000000000E+20
 20
1.00000000000000E+20
 30
1.00000000000000E+20
  9
$PEXTMAX
 10
-1.00000000000000E+20
 20
-1.00000000000000E+20
 30
-1.00000000000000E+20
  9
$PLIMMIN
 10
0.0
 20
0.0
  9
$PLIMMAX
 10
12.0
 20
9.0
  9
$UNITMODE
 70
     0
  9
$VISRETAIN
 70
     1
  9
$PLINEGEN
 70
     0
  9
$PSLTSCALE
 70
     1
  9
$TREEDEPTH
 70
  3020
  9
$CMLSTYLE
  2
Standard
  9
$CMLJUST
 70
     0
  9
$CMLSCALE
 40
1.0
  9
$PROXYGRAPHICS
 70
     1
  9
$MEASUREMENT
 70
     1
  9
$CELWEIGHT
370
    -1
  9
$ENDCAPS
280
     0
  9
$JOINSTYLE
280
     0
  9
$LWDISPLAY
290
     0
  9
$INSUNITS
 70
     4
  9
$HYPERLINKBASE
  1

  9
$STYLESHEET
  1

  9
$XEDIT
290
     1
  9
$CEPSNTYPE
380
     0
  9
$PSTYLEMODE
290
     1
  9
$FINGERPRINTGUID
  2
{17cdf6e5-0419-4615-9e42-4705cf1fe8b3}
  9
$VERSIONGUID
  2
{FAEB1C32-E019-11D5-929B-00C0DF256EC4}
  9
$EXTNAMES
290
     1
  9
$PSVPSCALE
 40
0.0
  9
$OLESTARTUP
290
     0
  9
$SORTENTS
280
   127
  9
$INDEXCTL
280
     0
  9
$HIDETEXT
280
     1
  9
$XCLIPFRAME
290
     0
  9
$HALOGAP
280
     0
  9
$OBSCOLOR
 70
   257
  9
$OBSLTYPE
280
     0
  9
$INTERSECTIONDISPLAY
280
     0
  9
$INTERSECTIONCOLOR
 70
   257
  9
$DIMASSOC
280
     2
  9
$PROJECTNAME
  1

  0
ENDSEC
  0
SECTION
  2
CLASSES
  0
CLASS
  1
ACDBDICTIONARYWDFLT
  2
AcDbDictionaryWithDefault
  3
ObjectDBX Classes
 90
        0
 91
        3
280
     0
281
     0
  0
CLASS
  1
VISUALSTYLE
  2
AcDbVisualStyle
  3
ObjectDBX Classes
 90
     4095
 91
        3
280
     0
281
     0
  0
CLASS
  1
MATERIAL
  2
AcDbMaterial
  3
ObjectDBX Classes
 90
     1153
 91
        3
280
     0
281
     0
  0
CLASS
  1
SCALE
  2
AcDbScale
  3
ObjectDBX Classes
 90
     1153
 91
        3
280
     0
281
     0
  0
CLASS
  1
TABLESTYLE
  2
AcDbTableStyle
  3
ObjectDBX Classes
 90
     4095
 91
        3
280
     0
281
     0
  0
CLASS
  1
MLEADERSTYLE
  2
AcDbMLeaderStyle
  3
ACDB_MLEADERSTYLE_CLASS
 90
     4095
 91
        3
280
     0
281
     0
  0
CLASS
  1
SUN
  2
AcDbSun
  3
SCENEOE
 90
     1153
 91
        3
280
     0
281
     0
  0
CLASS
  1
DICTIONARYVAR
  2
AcDbDictionaryVar
  3
ObjectDBX Classes
 90
        0
 91
        3
280
     0
281
     0
  0
CLASS
  1
CELLSTYLEMAP
  2
AcDbCellStyleMap
  3
ObjectDBX Classes
 90
     1152
 91
        3
280
     0
281
     0
  0
ENDSEC
  0
SECTION
  2
TABLES
  0
TABLE
  2
VPORT
  5
8
102
{ACAD_XDICTIONARY
360
33F
102
}
330
0
100
AcDbSymbolTable
 70
     1
  0
VPORT
  5
29
330
8
100
AcDbSymbolTableRecord
100
AcDbViewportTableRecord
  2
*Active
 70
     0
 10
0.0
 20
0.0
 11
1.0
 21
1.0
 12
-97.05820487050217
 22
111.3637732573347
 13
0.0
 23
0.0
 14
0.5
 24
0.5
 15
0.5
 25
0.5
 16
0.0
 26
0.0
 36
1.0
 17
0.0
 27
0.0
 37
0.0
 40
231.0000000000001
 41
1.60267857142857
 42
50.0
 43
0.0
 44
0.0
 50
0.0
 51
0.0
 71
     0
 72
   100
 73
     1
 74
     3
 75
     0
 76
     0
 77
     0
 78
     0
281
     0
 65
     1
110
0.0
120
0.0
130
0.0
111
1.0
121
0.0
131
0.0
112
0.0
122
1.0
132
0.0
 79
     0
146
0.0
  0
ENDTAB
  0
TABLE
  2
LTYPE
  5
5
330
0
100
AcDbSymbolTable
 70
     8
  0
LTYPE
  5
14
330
5
100
AcDbSymbolTableRecord
100
AcDbLinetypeTableRecord
  2
ByBlock
 70
     0
  3

 72
    65
 73
     0
 40
0.0
  0
LTYPE
  5
15
330
5
100
AcDbSymbolTableRecord
100
AcDbLinetypeTableRecord
  2
ByLayer
 70
     0
  3

 72
    65
 73
     0
 40
0.0
  0
LTYPE
  5
16
330
5
100
AcDbSymbolTableRecord
100
AcDbLinetypeTableRecord
  2
Continuous
 70
     0
  3
Solid line
 72
    65
 73
     0
 40
0.0
  0
LTYPE
  5
6E
330
5
100
AcDbSymbolTableRecord
100
AcDbLinetypeTableRecord
  2
DASHED
 70
     0
  3
Dashed
 72
    65
 73
     2
 40
15.0
 49
7.0
 74
     0
 49
-8.0
 74
     0
  0
LTYPE
  5
6F
330
5
100
AcDbSymbolTableRecord
100
AcDbLinetypeTableRecord
  2
DOTTED
 70
     0
  3
Dotted
 72
    65
 73
     2
 40
1.0
 49
0.0
 74
     0
 49
-1.0
 74
     0
  0
LTYPE
  5
70
330
5
100
AcDbSymbolTableRecord
100
AcDbLinetypeTableRecord
  2
DOT_CENTER
 70
     0
  3
Dot_Center
 72
    65
 73
     4
 40
14.0
 49
12.0
 74
     0
 49
-1.0
 74
     0
 49
0.0
 74
     0
 49
-1.0
 74
     0
  0
LTYPE
  5
71
330
5
100
AcDbSymbolTableRecord
100
AcDbLinetypeTableRecord
  2
LONG_DASHED
 70
     0
  3
Long_Dashed
 72
    65
 73
     2
 40
15.0
 49
10.0
 74
     0
 49
-5.0
 74
     0
  0
LTYPE
  5
72
330
5
100
AcDbSymbolTableRecord
100
AcDbLinetypeTableRecord
  2
DASH_CENTER
 70
     0
  3
Dash_Center
 72
    65
 73
     4
 40
14.0
 49
11.0
 74
     0
 49
-1.0
 74
     0
 49
1.0
 74
     0
 49
-1.0
 74
     0
  0
LTYPE
  5
73
330
5
100
AcDbSymbolTableRecord
100
AcDbLinetypeTableRecord
  2
PHANTOM
 70
     0
  3
Phantom
 72
    65
 73
     6
 40
13.0
 49
10.0
 74
     0
 49
-1.0
 74
     0
 49
0.0
 74
     0
 49
-1.0
 74
     0
 49
0.0
 74
     0
 49
-1.0
 74
     0
  0
LTYPE
  5
74
330
5
100
AcDbSymbolTableRecord
100
AcDbLinetypeTableRecord
  2
CENTER_DASH_DASH
 70
     0
  3
Center_Dash_Dash
 72
    65
 73
     6
 40
14.0
 49
9.0
 74
     0
 49
-1.0
 74
     0
 49
1.0
 74
     0
 49
-1.0
 74
     0
 49
1.0
 74
     0
 49
-1.0
 74
     0
  0
ENDTAB
  0
TABLE
  2
LAYER
  5
2
330
0
100
AcDbSymbolTable
 70
     2
  0
LAYER
  5
10
330
2
100
AcDbSymbolTableRecord
100
AcDbLayerTableRecord
  2
0
 70
     0
 62
     7
  6
Continuous
370
    -3
390
F
  0
LAYER
  5
75
330
2
100
AcDbSymbolTableRecord
100
AcDbLayerTableRecord
  2
1
 70
     0
 62
     7
  6
Continuous
370
    -3
390
F
  0
ENDTAB
  0
TABLE
  2
STYLE
  5
3
330
0
100
AcDbSymbolTable
 70
     5
  0
STYLE
  5
11
330
3
100
AcDbSymbolTableRecord
100
AcDbTextStyleTableRecord
  2
Standard
 70
     0
 40
0.0
 41
1.0
 50
0.0
 71
     0
 42
0.2
  3
txt
  4

  0
STYLE
  5
F7
330
3
100
AcDbSymbolTableRecord
100
AcDbTextStyleTableRecord
  2
CONVERTER_11
 70
     0
 40
0.0
 41
0.9
 50
0.0
 71
     0
 42
0.2
  3
txt.shx
  4

  0
STYLE
  5
1F5
330
3
100
AcDbSymbolTableRecord
100
AcDbTextStyleTableRecord
  2
CONVERTER_12
 70
     0
 40
0.0
 41
0.81
 50
0.0
 71
     0
 42
0.2
  3
txt.shx
  4

  0
STYLE
  5
20B
330
3
100
AcDbSymbolTableRecord
100
AcDbTextStyleTableRecord
  2
CONVERTER_13
 70
     0
 40
0.0
 41
0.72
 50
0.0
 71
     0
 42
0.2
  3
txt.shx
  4

  0
STYLE
  5
20E
330
3
100
AcDbSymbolTableRecord
100
AcDbTextStyleTableRecord
  2
CONVERTER_14
 70
     0
 40
0.0
 41
0.855
 50
0.0
 71
     0
 42
0.2
  3
txt.shx
  4

  0
ENDTAB
  0
TABLE
  2
VIEW
  5
6
330
0
100
AcDbSymbolTable
 70
     0
  0
ENDTAB
  0
TABLE
  2
UCS
  5
7
330
0
100
AcDbSymbolTable
 70
     0
  0
ENDTAB
  0
TABLE
  2
APPID
  5
9
330
0
100
AcDbSymbolTable
 70
     2
  0
APPID
  5
12
330
9
100
AcDbSymbolTableRecord
100
AcDbRegAppTableRecord
  2
ACAD
 70
     0
  0
APPID
  5
37E
330
9
100
AcDbSymbolTableRecord
100
AcDbRegAppTableRecord
  2
ACAD_MLEADERVER
 70
     0
  0
ENDTAB
  0
TABLE
  2
DIMSTYLE
  5
A
330
0
100
AcDbSymbolTable
 70
     5
100
AcDbDimStyleTable
  0
DIMSTYLE
105
27
330
A
100
AcDbSymbolTableRecord
100
AcDbDimStyleTableRecord
  2
Standard
 70
     0
178
     0
340
11
  0
DIMSTYLE
105
26A
102
{ACAD_REACTORS
330
26B
102
}
330
A
100
AcDbSymbolTableRecord
100
AcDbDimStyleTableRecord
  2
ME10_DIM_10
 70
     0
 41
3.5
 42
0.0
 44
1.5
 73
     0
 74
     0
 77
     1
 78
     8
140
3.5
147
1.5
172
     1
173
     1
174
     1
175
     1
176
     2
177
     2
271
     2
178
     3
271
     2
340
F7
  0
DIMSTYLE
105
2B2
102
{ACAD_REACTORS
330
2B3
102
}
330
A
100
AcDbSymbolTableRecord
100
AcDbDimStyleTableRecord
  2
ME10_DIM_11
 70
     0
 41
3.5
 42
0.0
 44
1.5
 73
     0
 74
     0
 77
     1
 78
     8
140
3.5
147
1.5
172
     1
173
     1
174
     1
175
     1
176
     2
177
     2
178
     3
340
F7
  0
DIMSTYLE
105
2BD
102
{ACAD_REACTORS
330
2BE
102
}
330
A
100
AcDbSymbolTableRecord
100
AcDbDimStyleTableRecord
  2
ME10_DIM_12
 70
     0
 41
3.5
 42
0.0
 44
1.5
 73
     0
 74
     0
 77
     1
 78
     8
140
3.5
147
1.5
172
     1
173
     1
174
     1
175
     1
176
     2
177
     2
271
     2
178
     3
271
     2
340
F7
  0
DIMSTYLE
105
2C8
102
{ACAD_REACTORS
330
2C9
102
}
330
A
100
AcDbSymbolTableRecord
100
AcDbDimStyleTableRecord
  2
ME10_DIM_13
 70
     0
 41
3.5
 42
0.0
 44
1.5
 73
     0
 74
     0
 77
     1
 78
     8
140
3.5
147
1.5
172
     1
173
     1
174
     1
175
     1
176
     2
177
     2
271
     2
178
     3
271
     2
340
F7
  0
ENDTAB
  0
TABLE
  2
BLOCK_RECORD
  5
1
330
0
100
AcDbSymbolTable
 70
    21
  0
BLOCK_RECORD
  5
1F
330
1
100
AcDbSymbolTableRecord
100
AcDbBlockTableRecord
  2
*Model_Space
340
22
  0
BLOCK_RECORD
  5
1B
330
1
100
AcDbSymbolTableRecord
100
AcDbBlockTableRecord
  2
*Paper_Space
340
1E
  0
BLOCK_RECORD
  5
23
330
1
100
AcDbSymbolTableRecord
100
AcDbBlockTableRecord
  2
*Paper_Space0
340
26
  0
BLOCK_RECORD
  5
76
330
1
100
AcDbSymbolTableRecord
100
AcDbBlockTableRecord
  2
PLT_SEC_T3_230_P-select__1
340
0
102
{BLKREFS
331
7A
102
}
  0
BLOCK_RECORD
  5
79
330
1
100
AcDbSymbolTableRecord
100
AcDbBlockTableRecord
  2
Allg2
340
0
102
{BLKREFS
331
AC
102
}
  0
BLOCK_RECORD
  5
7D
330
1
100
AcDbSymbolTableRecord
100
AcDbBlockTableRecord
  2
_rahmen
340
0
102
{BLKREFS
331
84
102
}
  0
BLOCK_RECORD
  5
80
330
1
100
AcDbSymbolTableRecord
100
AcDbBlockTableRecord
  2
_punkt
340
0
102
{BLKREFS
331
85
102
}
  0
BLOCK_RECORD
  5
83
330
1
100
AcDbSymbolTableRecord
100
AcDbBlockTableRecord
  2
A4I_CS
340
0
102
{BLKREFS
331
AD
102
}
  0
BLOCK_RECORD
  5
88
330
1
100
AcDbSymbolTableRecord
100
AcDbBlockTableRecord
  2
PLT_SEC_T3_230_P-select__2
340
0
102
{BLKREFS
331
8C
102
}
  0
BLOCK_RECORD
  5
8B
330
1
100
AcDbSymbolTableRecord
100
AcDbBlockTableRecord
  2
Drfsicht2
340
0
102
{BLKREFS
331
AE
102
}
  0
BLOCK_RECORD
  5
8F
330
1
100
AcDbSymbolTableRecord
100
AcDbBlockTableRecord
  2
PLT_SEC_T3_230_P-select__3
340
0
102
{BLKREFS
331
93
102
}
  0
BLOCK_RECORD
  5
92
330
1
100
AcDbSymbolTableRecord
100
AcDbBlockTableRecord
  2
Rckans2
340
0
102
{BLKREFS
331
AF
102
}
  0
BLOCK_RECORD
  5
96
330
1
100
AcDbSymbolTableRecord
100
AcDbBlockTableRecord
  2
PLT_SEC_T3_230_P-select__4
340
0
102
{BLKREFS
331
9A
102
}
  0
BLOCK_RECORD
  5
99
330
1
100
AcDbSymbolTableRecord
100
AcDbBlockTableRecord
  2
Vordans2
340
0
102
{BLKREFS
331
B0
102
}
  0
BLOCK_RECORD
  5
9D
330
1
100
AcDbSymbolTableRecord
100
AcDbBlockTableRecord
  2
PLT_SEC_T3_230_P-select__5
340
0
102
{BLKREFS
331
A1
102
}
  0
BLOCK_RECORD
  5
A0
330
1
100
AcDbSymbolTableRecord
100
AcDbBlockTableRecord
  2
SA_Rechts2
340
0
102
{BLKREFS
331
B1
102
}
  0
BLOCK_RECORD
  5
A4
330
1
100
AcDbSymbolTableRecord
100
AcDbBlockTableRecord
  2
PLT_SEC_T3_230_P-select__6
340
0
102
{BLKREFS
331
A8
102
}
  0
BLOCK_RECORD
  5
A7
330
1
100
AcDbSymbolTableRecord
100
AcDbBlockTableRecord
  2
SA_Links2
340
0
102
{BLKREFS
331
B2
102
}
  0
BLOCK_RECORD
  5
AB
330
1
100
AcDbSymbolTableRecord
100
AcDbBlockTableRecord
  2
1
340
0
102
{BLKREFS
331
B5
102
}
  0
BLOCK_RECORD
  5
261
330
1
100
AcDbSymbolTableRecord
100
AcDbBlockTableRecord
  2
*D17
340
0
  0
BLOCK_RECORD
  5
2A9
330
1
100
AcDbSymbolTableRecord
100
AcDbBlockTableRecord
  2
*D18
340
0
  0
BLOCK_RECORD
  5
2B4
330
1
100
AcDbSymbolTableRecord
100
AcDbBlockTableRecord
  2
*D19
340
0
  0
BLOCK_RECORD
  5
2BF
330
1
100
AcDbSymbolTableRecord
100
AcDbBlockTableRecord
  2
*D20
340
0
  0
ENDTAB
  0
ENDSEC
  0
SECTION
  2
BLOCKS
  0
BLOCK
  5
20
330
1F
100
AcDbEntity
  8
0
100
AcDbBlockBegin
  2
*Model_Space
 70
     0
 10
0.0
 20
0.0
 30
0.0
  3
*Model_Space
  1

  0
ENDBLK
  5
21
330
1F
100
AcDbEntity
  8
0
100
AcDbBlockEnd
  0
BLOCK
  5
1C
330
1B
100
AcDbEntity
 67
     1
  8
0
100
AcDbBlockBegin
  2
*Paper_Space
 70
     0
 10
0.0
 20
0.0
 30
0.0
  3
*Paper_Space
  1

  0
ENDBLK
  5
1D
330
1B
100
AcDbEntity
 67
     1
  8
0
100
AcDbBlockEnd
  0
BLOCK
  5
24
330
23
100
AcDbEntity
  8
0
100
AcDbBlockBegin
  2
*Paper_Space0
 70
     0
 10
0.0
 20
0.0
 30
0.0
  3
*Paper_Space0
  1

  0
ENDBLK
  5
25
330
23
100
AcDbEntity
  8
0
100
AcDbBlockEnd
  0
BLOCK
  5
77
330
76
100
AcDbEntity
  8
0
100
AcDbBlockBegin
  2
PLT_SEC_T3_230_P-select__1
 70
     0
 10
-41.89335992100271
 20
48.99388625568848
 30
0.0
  3
PLT_SEC_T3_230_P-select__1
  1

  0
LINE
  5
B6
330
76
100
AcDbEntity
  8
0
  6
Continuous
 62
     7
100
AcDbLine
 10
5.65477857100649
 20
100.1247003552789
 30
0.0
 11
5.65477857100649
 21
101.4121863896948
 31
0.0
  0
LINE
  5
B7
330
76
100
AcDbEntity
  8
0
  6
Continuous
 62
     7
100
AcDbLine
 10
5.654635283945
 20
86.36561120145937
 30
0.0
 11
5.654635283945
 21
88.07639271839005
 31
0.0
  0
LINE
  5
B8
330
76
100
AcDbEntity
  8
0
  6
Continuous
 62
     7
100
AcDbLine
 10
5.654635283945
 20
86.36561120145937
 30
0.0
 11
5.154635283945
 21
85.93259849956718
 31
0.0
  0
LINE
  5
B9
330
76
100
AcDbEntity
  8
0
  6
Continuous
 62
     7
100
AcDbLine
 10
4.6669421383547
 20
99.26920890981862
 30
0.0
 11
4.71518224233859
 21
88.59476429983405
 31
0.0
  0
LINE
  5
BA
330
76
100
AcDbEntity
  8
0
  6
Continuous
 62
     7
100
AcDbLine
 10
5.654635283945
 20
88.07639271839005
 30
0.0
 11
4.71518224233859
 21
88.59476429983405
 31
0.0
  0
LINE
  5
BB
330
76
100
AcDbEntity
  8
0
  6
Continuous
 62
     7
100
AcDbLine
 10
-4.03487487306512
 20
81.01699255332963
 30
0.0
 11
4.71518224233859
 21
88.59476429983405
 31
0.0
  0
LINE
  5
BC
330
76
100
AcDbEntity
  8
0
  6
Continuous
 62
     7
100
AcDbLine
 10
-3.09542183145871
 20
78.78783945495498
 30
0.0
 11
-4.22125485637841
 21
79.11283945495497
 31
0.0
  0
LINE
  5
BD
330
76
100
AcDbEntity
  8
0
  6
Continuous
 62
     7
100
AcDbLine
 10
-3.09542183145871
 20
78.78783945495498
 30
0.0
 11
-3.09542183145871
 21
80.49862097188566
 31
0.0
  0
LINE
  5
BE
330
76
100
AcDbEntity
  8
0
  6
Continuous
 62
     7
100
AcDbLine
 10
-4.0881778120349
 20
92.81172810720764
 30
0.0
 11
-3.09527854439722
 21
92.54692860877445
 31
0.0
  0
LINE
  5
BF
330
76
100
AcDbEntity
  8
0
  6
Continuous
 62
     7
100
AcDbLine
 10
-3.09542183145871
 20
80.49862097188566
 30
0.0
 11
-4.03487487306512
 21
81.01699255332963
 31
0.0
  0
LINE
  5
C0
330
76
100
AcDbEntity
  8
0
  6
Continuous
 62
     7
100
AcDbLine
 10
5.65477857100649
 20
100.1247003552789
 30
0.0
 11
-3.09527854439722
 21
92.54692860877445
 31
0.0
  0
LINE
  5
C1
330
76
100
AcDbEntity
  8
0
  6
Continuous
 62
     7
100
AcDbLine
 10
5.654635283945
 20
88.07639271839005
 30
0.0
 11
-3.09542183145871
 21
80.49862097188566
 31
0.0
  0
LINE
  5
C2
330
76
100
AcDbEntity
  8
0
  6
Continuous
 62
     7
100
AcDbLine
 10
5.65477857100649
 20
101.4121863896948
 30
0.0
 11
-3.09527854439722
 21
93.8344146431904
 31
0.0
  0
LINE
  5
C3
330
76
100
AcDbEntity
  8
0
  6
Continuous
 62
     7
100
AcDbLine
 10
-3.63248293855352
 20
48.99388625568848
 30
0.0
 11
-3.63248293855352
 21
55.74789452882621
 31
0.0
  0
LINE
  5
C4
330
76
100
AcDbEntity
  8
0
  6
Continuous
 62
     7
100
AcDbLine
 10
-3.09527854439722
 20
93.8344146431904
 30
0.0
 11
-3.09527854439722
 21
92.54692860877445
 31
0.0
  0
LINE
  5
C5
330
76
100
AcDbEntity
  8
0
  6
Continuous
 62
     7
100
AcDbLine
 10
-41.89321663394071
 20
106.3012585282164
 30
0.0
 11
-40.888759872104
 21
105.9892169501058
 31
0.0
  0
LINE
  5
C6
330
76
100
AcDbEntity
  8
0
  6
Continuous
 62
     7
100
AcDbLine
 10
-40.95362030527213
 20
91.67451636004358
 30
0.0
 11
-40.888759872104
 21
105.9892169501058
 31
0.0
  0
LINE
  5
C7
330
76
100
AcDbEntity
  8
0
  6
Continuous
 62
     7
100
AcDbLine
 10
-23.2978020200552
 20
105.1909165435972
 30
0.0
 11
-20.99081451186851
 21
102.2179591059761
 31
0.0
  0
LINE
  5
C8
330
76
100
AcDbEntity
  8
0
  6
Continuous
 62
     7
100
AcDbLine
 10
-12.24075739646472
 20
109.7957308524805
 30
0.0
 11
-20.99081451186851
 21
102.2179591059761
 31
0.0
  0
LINE
  5
C9
330
76
100
AcDbEntity
  8
0
  6
Continuous
 62
     7
100
AcDbLine
 10
-12.24075739646472
 20
109.7957308524805
 30
0.0
 11
-14.54774490465152
 21
112.7686882901016
 31
0.0
  0
LINE
  5
CA
330
76
100
AcDbEntity
  8
0
  6
Continuous
 62
     2
100
AcDbLine
 10
-23.2978020200552
 20
105.1909165435972
 30
0.0
 11
-14.54774490465152
 21
112.7686882901016
 31
0.0
  0
LINE
  5
CB
330
76
100
AcDbEntity
  8
0
  6
Continuous
 62
     7
100
AcDbLine
 10
-17.8588221706232
 20
110.8224680494009
 30
0.0
 11
-21.3761557010811
 21
107.7763678584416
 31
0.0
  0
LINE
  5
CC
330
76
100
AcDbEntity
  8
0
  6
Continuous
 62
     2
100
AcDbLine
 10
-23.61177043039072
 20
105.4083079635314
 30
0.0
 11
-14.86171331498701
 21
112.9860797100358
 31
0.0
  0
LINE
  5
CD
330
76
100
AcDbEntity
  8
0
  6
Continuous
 62
     7
100
AcDbLine
 10
-41.89335992100271
 20
91.94579582009871
 30
0.0
 11
-40.94868422742201
 21
92.76390896907725
 31
0.0
  0
LINE
  5
CE
330
76
100
AcDbEntity
  8
0
  6
Continuous
 62
     7
100
AcDbLine
 10
-41.89335992100271
 20
91.94579582009871
 30
0.0
 11
-40.95362030527213
 21
91.67451636004358
 31
0.0
  0
LINE
  5
CF
330
76
100
AcDbEntity
  8
0
  6
Continuous
 62
     7
100
AcDbLine
 10
-20.8450556495045
 20
108.2363139950581
 30
0.0
 11
-21.17754732831222
 21
108.3324373764903
 31
0.0
  0
LINE
  5
D0
330
76
100
AcDbEntity
  8
0
  6
Continuous
 62
     7
100
AcDbLine
 10
-20.18418617690531
 20
108.8086437469147
 30
0.0
 11
-21.18349010355101
 21
109.1070699472978
 31
0.0
  0
LINE
  5
D1
330
76
100
AcDbEntity
  8
0
  6
Continuous
 62
     7
100
AcDbLine
 10
-21.18349010355101
 20
109.1070699472978
 30
0.0
 11
-21.47210786782932
 21
111.6609048894851
 31
0.0
  0
LINE
  5
D2
330
76
100
AcDbEntity
  8
0
  6
Continuous
 62
     7
100
AcDbLine
 10
-41.89321663394071
 20
106.3012585282164
 30
0.0
 11
-41.8932166339406
 21
107.5922788445841
 31
0.0
  0
LINE
  5
D3
330
76
100
AcDbEntity
  8
0
  6
Continuous
 62
     7
100
AcDbLine
 10
-21.47210786782932
 20
111.6609048894851
 30
0.0
 11
-24.96687317699161
 21
108.634349351486
 31
0.0
  0
LINE
  5
D4
330
76
100
AcDbEntity
  8
0
  6
Continuous
 62
     7
100
AcDbLine
 10
-33.14315951853692
 20
115.1700505910885
 30
0.0
 11
-41.8932166339406
 21
107.5922788445841
 31
0.0
  0
LINE
  5
D5
330
76
100
AcDbEntity
  8
0
  6
Continuous
 62
     7
100
AcDbLine
 10
-3.23248293855352
 20
49.34029641720225
 30
0.0
 11
-3.23248293855352
 21
55.63242447498829
 31
0.0
  0
LINE
  5
D6
330
76
100
AcDbEntity
  8
0
  6
Continuous
 62
     7
100
AcDbLine
 10
-3.63248293855352
 20
48.99388625568848
 30
0.0
 11
-3.23248293855352
 21
49.34029641720225
 31
0.0
  0
LINE
  5
D7
330
76
100
AcDbEntity
  8
0
  6
Continuous
 62
     7
100
AcDbLine
 10
-4.22125485637841
 20
55.34044212107297
 30
0.0
 11
-3.72119774097482
 21
55.77350428635572
 31
0.0
  0
LINE
  5
D8
330
76
100
AcDbEntity
  8
0
  6
Continuous
 62
     7
100
AcDbLine
 10
-1.03248293855361
 20
52.89100057271843
 30
0.0
 11
-0.63248293855361
 21
53.2374107342322
 31
0.0
  0
LINE
  5
D9
330
76
100
AcDbEntity
  8
0
  6
Continuous
 62
     7
100
AcDbLine
 10
1.5675170614465
 20
53.49721835536753
 30
0.0
 11
1.5675170614465
 21
59.05366565862333
 31
0.0
  0
LINE
  5
DA
330
76
100
AcDbEntity
  8
0
  6
Continuous
 62
     7
100
AcDbLine
 10
-0.63248293855361
 20
53.2374107342322
 30
0.0
 11
-0.63248293855361
 21
57.14840977029756
 31
0.0
  0
LINE
  5
DB
330
76
100
AcDbEntity
  8
0
  6
Continuous
 62
     7
100
AcDbLine
 10
-1.03248293855361
 20
52.89100057271843
 30
0.0
 11
-1.03248293855361
 21
56.80199960878378
 31
0.0
  0
LINE
  5
DC
330
76
100
AcDbEntity
  8
0
  6
Continuous
 62
     7
100
AcDbLine
 10
1.96751706144639
 20
53.8436285168813
 30
0.0
 11
1.96751706144639
 21
59.4000758201371
 31
0.0
  0
LINE
  5
DD
330
76
100
AcDbEntity
  8
0
  6
Continuous
 62
     7
100
AcDbLine
 10
-1.03248293855361
 20
52.89100057271843
 30
0.0
 11
-3.23248293855352
 21
53.526085868827
 31
0.0
  0
LINE
  5
DE
330
76
100
AcDbEntity
  8
0
  6
Continuous
 62
     7
100
AcDbLine
 10
-6.75017439217751
 20
49.89388625568848
 30
0.0
 11
-6.75017439217751
 21
56.07047830844923
 31
0.0
  0
LINE
  5
DF
330
76
100
AcDbEntity
  8
0
  6
Continuous
 62
     7
100
AcDbLine
 10
1.5675170614465
 20
53.49721835536753
 30
0.0
 11
1.96751706144639
 21
53.8436285168813
 31
0.0
  0
LINE
  5
E0
330
76
100
AcDbEntity
  8
0
  6
Continuous
 62
     7
100
AcDbLine
 10
1.5675170614465
 20
53.49721835536753
 30
0.0
 11
-0.63248293855361
 21
54.13230365147611
 31
0.0
  0
LINE
  5
E1
330
76
100
AcDbEntity
  8
0
  6
Continuous
 62
     7
100
AcDbLine
 10
5.154635283945
 20
62.16020116568519
 30
0.0
 11
5.154635283945
 21
85.93259849956718
 31
0.0
  0
LINE
  5
E2
330
76
100
AcDbEntity
  8
0
  6
Continuous
 62
     7
100
AcDbLine
 10
-2.595364716055
 20
79.22090162023773
 30
0.0
 11
-3.09542183145871
 21
78.78783945495498
 31
0.0
  0
LINE
  5
E3
330
76
100
AcDbEntity
  8
0
  6
Continuous
 62
     7
100
AcDbLine
 10
-4.22125485637841
 20
55.34044212107297
 30
0.0
 11
-4.22125485637841
 21
79.11283945495497
 31
0.0
  0
LINE
  5
E4
330
76
100
AcDbEntity
  8
0
  6
Continuous
 62
     7
100
AcDbLine
 10
-4.0881778120349
 20
92.81172810720764
 30
0.0
 11
-4.03487487306512
 21
81.01699255332963
 31
0.0
  0
LINE
  5
E5
330
76
100
AcDbEntity
  8
0
  6
Continuous
 62
     7
100
AcDbLine
 10
-3.72119774097482
 20
78.96848539986073
 30
0.0
 11
-3.72119774097482
 21
55.77350428635572
 31
0.0
  0
LINE
  5
E6
330
76
100
AcDbEntity
  8
0
  6
Continuous
 62
     7
100
AcDbLine
 10
-2.595364716055
 20
55.44850428635573
 30
0.0
 11
-2.595364716055
 21
79.22090162023773
 31
0.0
  0
LINE
  5
E7
330
76
100
AcDbEntity
  8
0
  6
Continuous
 62
     7
100
AcDbLine
 10
5.154635283945
 20
62.16020116568519
 30
0.0
 11
-2.595364716055
 21
55.44850428635573
 31
0.0
  0
LINE
  5
E8
330
76
100
AcDbEntity
  8
0
  6
Continuous
 62
     7
100
AcDbLine
 10
-2.595364716055
 20
55.44850428635573
 30
0.0
 11
-3.72119774097482
 21
55.77350428635572
 31
0.0
  0
LINE
  5
E9
330
76
100
AcDbEntity
  8
0
  6
Continuous
 62
     7
100
AcDbLine
 10
-3.63248293855352
 20
48.99388625568848
 30
0.0
 11
-6.75017439217751
 21
49.89388625568848
 31
0.0
  0
LINE
  5
EA
330
76
100
AcDbEntity
  8
0
  6
Continuous
 62
     7
100
AcDbLine
 10
-41.89335992100271
 20
91.94579582009871
 30
0.0
 11
-41.89335992100271
 21
66.21544212107331
 31
0.0
  0
LINE
  5
EB
330
76
100
AcDbEntity
  8
0
  6
Continuous
 62
     7
100
AcDbLine
 10
-41.89335992100271
 20
66.21544212107331
 30
0.0
 11
-4.22125485637841
 21
55.34044212107297
 31
0.0
  0
SPLINE
  5
EC
330
76
100
AcDbEntity
  8
0
  6
Continuous
 62
     7
100
AcDbSpline
210
0.0
220
0.0
230
1.0
 70
  1064
 71
     3
 72
     9
 73
     5
 74
     3
 42
0.000000001
 43
0.0000000001
 44
0.00000001
 40
0.0
 40
0.0
 40
0.0
 40
0.0
 40
10.06523451440674
 40
19.80335808713496
 40
19.80335808713496
 40
19.80335808713496
 40
19.80335808713496
 10
-3.095278544397218
 20
93.8344146431904
 30
0.0
 10
-5.990170213513981
 20
95.54793179470265
 30
0.0
 10
-11.68587222179655
 20
98.91927833533856
 30
0.0
 10
-17.92351142337209
 20
101.1305742157125
 30
0.0
 10
-20.99081451186851
 20
102.2179591059761
 30
0.0
 11
-3.095278544397218
 21
93.8344146431904
 31
0.0
 11
-11.91995066748867
 21
98.67529346453604
 31
0.0
 11
-20.99081451186851
 21
102.2179591059761
 31
0.0
  0
SPLINE
  5
ED
330
76
100
AcDbEntity
  8
0
  6
Continuous
 62
     7
100
AcDbSpline
210
0.0
220
0.0
230
1.0
 70
  1064
 71
     3
 72
    11
 73
     7
 74
     5
 42
0.000000001
 43
0.0000000001
 44
0.00000001
 40
0.0
 40
0.0
 40
0.0
 40
0.0
 40
0.1002345953925387
 40
0.1993449898606957
 40
0.2957038027675247
 40
0.3880025194058251
 40
0.3880025194058251
 40
0.3880025194058251
 40
0.3880025194058251
 10
-14.54774490465152
 20
112.7686882901016
 30
0.0
 10
-14.56938969418499
 20
112.7942378030077
 30
0.0
 10
-14.61243652276463
 20
112.8450502630744
 30
0.0
 10
-14.68980362480242
 20
112.9068665924505
 30
0.0
 10
-14.7725532884542
 20
112.9565872601115
 30
0.0
 10
-14.83242278796446
 20
112.9763909630596
 30
0.0
 10
-14.86171331498701
 20
112.9860797100358
 30
0.0
 11
-14.54774490465152
 21
112.7686882901016
 31
0.0
 11
-14.61498234208756
 21
112.8430260409745
 31
0.0
 11
-14.69182607591426
 21
112.9056192608335
 31
0.0
 11
-14.77518684393398
 21
112.9539514812091
 31
0.0
 11
-14.86171331498701
 21
112.9860797100358
 31
0.0
  0
SPLINE
  5
EE
330
76
100
AcDbEntity
  8
0
  6
Continuous
 62
     7
100
AcDbSpline
210
0.0
220
0.0
230
1.0
 70
  1080
 71
     3
 72
     9
 73
     5
 74
     3
 42
0.000000001
 43
0.0000000001
 44
0.00000001
 40
0.0
 40
0.0
 40
0.0
 40
0.0
 40
0.8115271073986583
 40
1.623054214797288
 40
1.623054214797288
 40
1.623054214797288
 40
1.623054214797288
 10
-22.40951773285221
 20
108.0435093066377
 30
0.0
 10
-22.20517979463532
 20
108.2207694134144
 30
0.0
 10
-21.79650391820158
 20
108.5752896269677
 30
0.0
 10
-21.38782804176787
 20
108.9298098405211
 30
0.0
 10
-21.18349010355101
 20
109.1070699472978
 30
0.0
 11
-22.40951773285221
 21
108.0435093066377
 31
0.0
 11
-21.79650391820158
 21
108.5752896269677
 31
0.0
 11
-21.18349010355101
 21
109.1070699472978
 31
0.0
  0
SPLINE
  5
EF
330
76
100
AcDbEntity
  8
0
  6
Continuous
 62
     7
100
AcDbSpline
210
0.0
220
0.0
230
1.0
 70
  1064
 71
     3
 72
     9
 73
     5
 74
     3
 42
0.000000001
 43
0.0000000001
 44
0.00000001
 40
0.0
 40
0.0
 40
0.0
 40
0.0
 40
1.861135997772382
 40
3.709679088201096
 40
3.709679088201096
 40
3.709679088201096
 40
3.709679088201096
 10
-17.8588221706232
 20
110.8224680494009
 30
0.0
 10
-18.46002660467551
 20
110.9758467629758
 30
0.0
 10
-19.65836757926259
 20
111.2815663722968
 30
0.0
 10
-20.86889752851566
 20
111.5347452045575
 30
0.0
 10
-21.47210786782932
 20
111.6609048894851
 30
0.0
 11
-17.8588221706232
 21
110.8224680494009
 31
0.0
 11
-19.66550344237374
 21
111.2693796570497
 31
0.0
 11
-21.47210786782932
 21
111.6609048894851
 31
0.0
  0
SPLINE
  5
F0
330
76
100
AcDbEntity
  8
0
  6
Continuous
 62
     7
100
AcDbSpline
210
0.0
220
0.0
230
1.0
 70
  1064
 71
     3
 72
     9
 73
     5
 74
     3
 42
0.000000001
 43
0.0000000001
 44
0.00000001
 40
0.0
 40
0.0
 40
0.0
 40
0.0
 40
10.06523451440675
 40
19.80335808713487
 40
19.80335808713487
 40
19.80335808713487
 40
19.80335808713487
 10
5.654778571006489
 20
101.4121863896948
 30
0.0
 10
2.759886901889722
 20
103.1257035412071
 30
0.0
 10
-2.935815106392823
 20
106.4970500818429
 30
0.0
 10
-9.173454307968331
 20
108.708345962217
 30
0.0
 10
-12.24075739646472
 20
109.7957308524805
 30
0.0
 11
5.654778571006489
 21
101.4121863896948
 31
0.0
 11
-3.169893552084965
 21
106.2530652110404
 31
0.0
 11
-12.24075739646472
 21
109.7957308524805
 31
0.0
  0
SPLINE
  5
F1
330
76
100
AcDbEntity
  8
0
  6
Continuous
 62
     7
100
AcDbSpline
210
0.0
220
0.0
230
1.0
 70
  1080
 71
     3
 72
     9
 73
     5
 74
     3
 42
0.000000001
 43
0.0000000001
 44
0.00000001
 40
0.0
 40
0.0
 40
0.0
 40
0.0
 40
0.3561839705615363
 40
0.7123679412423171
 40
0.7123679412423171
 40
0.7123679412423171
 40
0.7123679412423171
 10
-21.17754732831222
 20
108.3324373764903
 30
0.0
 10
-21.26728740359721
 20
108.2547002904777
 30
0.0
 10
-21.44676755422734
 20
108.0992261184612
 30
0.0
 10
-21.6262477049176
 20
107.9437519465142
 30
0.0
 10
-21.71598778029281
 20
107.866014860545
 30
0.0
 11
-21.17754732831222
 21
108.3324373764903
 31
0.0
 11
-21.44676755419729
 21
108.0992261184872
 31
0.0
 11
-21.71598778029281
 21
107.866014860545
 31
0.0
  0
SPLINE
  5
F2
330
76
100
AcDbEntity
  8
0
  6
Continuous
 62
     7
100
AcDbSpline
210
0.0
220
0.0
230
1.0
 70
  1080
 71
     3
 72
    11
 73
     7
 74
     5
 42
0.000000001
 43
0.0000000001
 44
0.00000001
 40
0.0
 40
0.0
 40
0.0
 40
0.0
 40
0.1936638415422254
 40
0.3873276830842802
 40
0.5809915246263206
 40
0.7746553661683184
 40
0.7746553661683184
 40
0.7746553661683184
 40
0.7746553661683184
 10
-21.18349010355101
 20
109.1070699472978
 30
0.0
 10
-21.18299487228111
 20
109.0425172330638
 30
0.0
 10
-21.18200440974129
 20
108.9134118045959
 30
0.0
 10
-21.1805187159316
 20
108.7197536618939
 30
0.0
 10
-21.17903302212191
 20
108.5260955191921
 30
0.0
 10
-21.17804255958211
 20
108.3969900907242
 30
0.0
 10
-21.17754732831222
 20
108.3324373764903
 30
0.0
 11
-21.18349010355101
 21
109.1070699472978
 31
0.0
 11
-21.18200440974131
 21
108.9134118045958
 31
0.0
 11
-21.18051871593161
 21
108.719753661894
 31
0.0
 11
-21.17903302212191
 21
108.5260955191921
 31
0.0
 11
-21.17754732831222
 21
108.3324373764903
 31
0.0
  0
SPLINE
  5
F3
330
76
100
AcDbEntity
  8
0
  6
Continuous
 62
     7
100
AcDbSpline
210
0.0
220
0.0
230
1.0
 70
  1064
 71
     3
 72
     9
 73
     5
 74
     3
 42
0.000000001
 43
0.0000000001
 44
0.00000001
 40
0.0
 40
0.0
 40
0.0
 40
0.0
 40
1.837500739167935
 40
3.692112255887348
 40
3.692112255887348
 40
3.692112255887348
 40
3.692112255887348
 10
-24.96687317699161
 20
108.634349351486
 30
0.0
 10
-24.36841140758304
 20
108.5036625355129
 30
0.0
 10
-23.16591500684076
 20
108.2410719305421
 30
0.0
 10
-21.97458251082437
 20
107.9317470688246
 30
0.0
 10
-21.3761557010811
 20
107.7763678584416
 30
0.0
 11
-24.96687317699161
 21
108.634349351486
 31
0.0
 11
-23.17425303798606
 21
108.2307133717311
 31
0.0
 11
-21.3761557010811
 21
107.7763678584416
 31
0.0
  0
SPLINE
  5
F4
330
76
100
AcDbEntity
  8
0
  6
Continuous
 62
     7
100
AcDbSpline
210
0.0
220
0.0
230
1.0
 70
  1064
 71
     3
 72
     9
 73
     5
 74
     3
 42
0.000000001
 43
0.0000000001
 44
0.00000001
 40
0.0
 40
0.0
 40
0.0
 40
0.0
 40
9.432104489538887
 40
18.46459443225869
 40
18.46459443225869
 40
18.46459443225869
 40
18.46459443225869
 10
-14.86171331498701
 20
112.9860797100358
 30
0.0
 10
-17.93302116494644
 20
113.7106146804049
 30
0.0
 10
-23.94551327821117
 20
115.1289878768788
 30
0.0
 10
-30.12183383747745
 20
115.1565619473922
 30
0.0
 10
-33.14315951853692
 20
115.1700505910885
 30
0.0
 11
-14.86171331498701
 21
112.9860797100358
 31
0.0
 11
-24.11838596645255
 21
114.7967719918708
 31
0.0
 11
-33.14315951853692
 21
115.1700505910885
 31
0.0
  0
SPLINE
  5
F5
330
76
100
AcDbEntity
  8
0
  6
Continuous
 62
     7
100
AcDbSpline
210
0.0
220
0.0
230
1.0
 70
  1064
 71
     3
 72
    11
 73
     7
 74
     5
 42
0.000000001
 43
0.0000000001
 44
0.00000001
 40
0.0
 40
0.0
 40
0.0
 40
0.0
 40
0.1002345953925919
 40
0.1993449898607021
 40
0.2957038027675286
 40
0.3880025194058456
 40
0.3880025194058456
 40
0.3880025194058456
 40
0.3880025194058456
 10
-23.2978020200552
 20
105.1909165435972
 30
0.0
 10
-23.31944680958869
 20
105.2164660565033
 30
0.0
 10
-23.36249363816835
 20
105.2672785165701
 30
0.0
 10
-23.43986074020611
 20
105.3290948459461
 30
0.0
 10
-23.5226104038579
 20
105.3788155136071
 30
0.0
 10
-23.58247990336817
 20
105.3986192165552
 30
0.0
 10
-23.61177043039072
 20
105.4083079635314
 30
0.0
 11
-23.2978020200552
 21
105.1909165435972
 31
0.0
 11
-23.36503945749129
 21
105.2652542944701
 31
0.0
 11
-23.44188319131796
 21
105.3278475143291
 31
0.0
 11
-23.52524395933768
 21
105.3761797347047
 31
0.0
 11
-23.61177043039072
 21
105.4083079635314
 31
0.0
  0
SPLINE
  5
F6
330
76
100
AcDbEntity
  8
0
  6
Continuous
 62
     7
100
AcDbSpline
210
0.0
220
0.0
230
1.0
 70
  1064
 71
     3
 72
     9
 73
     5
 74
     3
 42
0.000000001
 43
0.0000000001
 44
0.00000001
 40
0.0
 40
0.0
 40
0.0
 40
0.0
 40
9.432104489538881
 40
18.46459443225866
 40
18.46459443225866
 40
18.46459443225866
 40
18.46459443225866
 10
-23.61177043039072
 20
105.4083079635314
 30
0.0
 10
-26.68307828035014
 20
106.1328429339005
 30
0.0
 10
-32.69557039361487
 20
107.5512161303743
 30
0.0
 10
-38.87189095288115
 20
107.5787902008879
 30
0.0
 10
-41.8932166339406
 20
107.5922788445841
 30
0.0
 11
-23.61177043039072
 21
105.4083079635314
 31
0.0
 11
-32.86844308185625
 21
107.2190002453664
 31
0.0
 11
-41.8932166339406
 21
107.5922788445841
 31
0.0
  0
ENDBLK
  5
78
330
76
100
AcDbEntity
  8
0
100
AcDbBlockEnd
  0
BLOCK
  5
7B
330
79
100
AcDbEntity
  8
0
100
AcDbBlockBegin
  2
Allg2
 70
     0
 10
-16.0000000000004
 20
86.0
 30
0.0
  3
Allg2
  1

  0
INSERT
  5
7A
330
79
100
AcDbEntity
  8
0
100
AcDbBlockReference
  2
PLT_SEC_T3_230_P-select__1
 10
-41.89335992100271
 20
48.99388625568848
 30
0.0
  0
MTEXT
  5
F8
330
79
100
AcDbEntity
  8
1
 62
     6
100
AcDbMText
 10
-18.12817189818395
 20
41.77765463785545
 30
0.0
 40
5.0
 41
0.0
 71
     2
 72
     1
  1
 
  7
CONVERTER_11
 73
     1
 44
1.32052821128451
  0
ENDBLK
  5
7C
330
79
100
AcDbEntity
  8
0
100
AcDbBlockEnd
  0
BLOCK
  5
7E
330
7D
100
AcDbEntity
  8
0
100
AcDbBlockBegin
  2
_rahmen
 70
     0
 10
46.44179512949789
 20
6.36377325733469
 30
0.0
  3
_rahmen
  1

  0
LINE
  5
F9
330
7D
100
AcDbEntity
  8
1
  6
Continuous
 62
     6
100
AcDbLine
 10
-83.10300939725212
 20
36.8637732573348
 30
0.0
 11
46.44179512949958
 21
36.8637732573348
 31
0.0
  0
LINE
  5
FA
330
7D
100
AcDbEntity
  8
1
  6
Continuous
 62
     7
100
AcDbLine
 10
-64.9030093972521
 20
15.6137732573348
 30
0.0
 11
-46.7030093972522
 21
15.6137732573348
 31
0.0
  0
LINE
  5
FB
330
7D
100
AcDbEntity
  8
1
  6
Continuous
 62
     6
100
AcDbLine
 10
-64.9030093972521
 20
11.3637732573348
 30
0.0
 11
-83.10300939725212
 21
11.36377325733469
 31
0.0
  0
LINE
  5
FC
330
7D
100
AcDbEntity
  8
1
  6
Continuous
 62
     7
100
AcDbLine
 10
-64.9030093972521
 20
15.6137732573348
 30
0.0
 11
-64.9030093972521
 21
11.3637732573348
 31
0.0
  0
LINE
  5
FD
330
7D
100
AcDbEntity
  8
1
  6
Continuous
 62
     7
100
AcDbLine
 10
-46.7030093972522
 20
15.6137732573348
 30
0.0
 11
-46.7030093972522
 21
11.36377325733469
 31
0.0
  0
LINE
  5
FE
330
7D
100
AcDbEntity
  8
1
  6
Continuous
 62
     7
100
AcDbLine
 10
-83.10300939725212
 20
15.61377325733469
 30
0.0
 11
-83.10300939725212
 21
11.36377325733469
 31
0.0
  0
LINE
  5
FF
330
7D
100
AcDbEntity
  8
1
  6
Continuous
 62
     7
100
AcDbLine
 10
-83.10300939725212
 20
15.61377325733469
 30
0.0
 11
-64.9030093972521
 21
15.6137732573348
 31
0.0
  0
LINE
  5
100
330
7D
100
AcDbEntity
  8
1
  6
Continuous
 62
     2
100
AcDbLine
 10
-73.86635451068952
 20
34.98877325733471
 30
0.0
 11
-73.86635451068952
 21
29.98877325733471
 31
0.0
  0
LINE
  5
101
330
7D
100
AcDbEntity
  8
1
  6
Continuous
 62
     2
100
AcDbLine
 10
-73.86635451068952
 20
29.98877325733471
 30
0.0
 11
-78.86635451068952
 21
31.23877325733471
 31
0.0
  0
LINE
  5
102
330
7D
100
AcDbEntity
  8
1
  6
Continuous
 62
     2
100
AcDbLine
 10
-78.86635451068952
 20
31.23877325733471
 30
0.0
 11
-78.86635451068952
 21
33.73877325733471
 31
0.0
  0
LINE
  5
103
330
7D
100
AcDbEntity
  8
1
  6
Continuous
 62
     2
100
AcDbLine
 10
-78.86635451068952
 20
33.73877325733471
 30
0.0
 11
-73.86635451068952
 21
34.98877325733471
 31
0.0
  0
LINE
  5
104
330
7D
100
AcDbEntity
  8
1
  6
Continuous
 62
     6
100
AcDbLine
 10
-205.5582048705003
 20
11.3637732573348
 30
0.0
 11
-240.5582048705002
 21
11.3637732573348
 31
0.0
  0
LINE
  5
105
330
7D
100
AcDbEntity
  8
1
  6
Continuous
 62
     6
100
AcDbLine
 10
46.44179512949958
 20
28.3637732573348
 30
0.0
 11
46.44179512949918
 21
19.8637732573348
 31
0.0
  0
LINE
  5
106
330
7D
100
AcDbEntity
  8
1
  6
Continuous
 62
     6
100
AcDbLine
 10
-46.7030093972522
 20
11.36377325733469
 30
0.0
 11
-47.05820487050212
 21
11.3637732573348
 31
0.0
  0
LINE
  5
107
330
7D
100
AcDbEntity
  8
1
  6
Continuous
 62
     6
100
AcDbLine
 10
-199.3582048705023
 20
11.36377325733469
 30
0.0
 11
-205.5582048705003
 21
11.3637732573348
 31
0.0
  0
LINE
  5
108
330
7D
100
AcDbEntity
  8
1
  6
Continuous
 62
     7
100
AcDbLine
 10
-46.7030093972522
 20
28.3637732573348
 30
0.0
 11
-46.7030093972522
 21
15.6137732573348
 31
0.0
  0
LINE
  5
109
330
7D
100
AcDbEntity
  8
1
  6
Continuous
 62
     7
100
AcDbLine
 10
-83.10300939725212
 20
28.3637732573348
 30
0.0
 11
-83.10300939725212
 21
15.61377325733469
 31
0.0
  0
LINE
  5
10A
330
7D
100
AcDbEntity
  8
1
  6
Continuous
 62
     6
100
AcDbLine
 10
-97.0582048705021
 20
11.3637732573348
 30
0.0
 11
-147.0582048705023
 21
11.3637732573348
 31
0.0
  0
LINE
  5
10B
330
7D
100
AcDbEntity
  8
1
  6
Continuous
 62
     6
100
AcDbLine
 10
-199.3582048705023
 20
11.36377325733469
 30
0.0
 11
-197.0582048705021
 21
11.3637732573348
 31
0.0
  0
LINE
  5
10C
330
7D
100
AcDbEntity
  8
1
  6
Continuous
 62
     6
100
AcDbLine
 10
-46.7030093972522
 20
11.36377325733469
 30
0.0
 11
2.94179512949788
 21
11.3637732573348
 31
0.0
  0
LINE
  5
10D
330
7D
100
AcDbEntity
  8
1
  6
Continuous
 62
     6
100
AcDbLine
 10
46.44179512949789
 20
11.3637732573348
 30
0.0
 11
46.44179512949918
 21
19.8637732573348
 31
0.0
  0
LINE
  5
10E
330
7D
100
AcDbEntity
  8
1
  6
Continuous
 62
     2
100
AcDbLine
 10
-245.5582048705012
 20
11.3637732573348
 30
0.0
 11
-245.5582048705012
 21
6.36377325733469
 31
0.0
  0
LINE
  5
10F
330
7D
100
AcDbEntity
  8
1
  6
Continuous
 62
     2
100
AcDbLine
 10
-240.5582048705002
 20
11.3637732573348
 30
0.0
 11
-245.5582048705012
 21
11.3637732573348
 31
0.0
  0
LINE
  5
110
330
7D
100
AcDbEntity
  8
1
  6
Continuous
 62
     2
100
AcDbLine
 10
-240.5582048705002
 20
6.36377325733469
 30
0.0
 11
-197.0582048705021
 21
6.36377325733469
 31
0.0
  0
LINE
  5
111
330
7D
100
AcDbEntity
  8
1
  6
Continuous
 62
     2
100
AcDbLine
 10
-240.5582048705002
 20
11.3637732573348
 30
0.0
 11
-240.5582048705002
 21
6.36377325733469
 31
0.0
  0
LINE
  5
112
330
7D
100
AcDbEntity
  8
1
  6
Continuous
 62
     2
100
AcDbLine
 10
2.94179512949788
 20
6.36377325733469
 30
0.0
 11
-47.05820487050212
 21
6.36377325733469
 31
0.0
  0
LINE
  5
113
330
7D
100
AcDbEntity
  8
1
  6
Continuous
 62
     2
100
AcDbLine
 10
2.94179512949788
 20
6.36377325733469
 30
0.0
 11
2.94179512949788
 21
11.3637732573348
 31
0.0
  0
LINE
  5
114
330
7D
100
AcDbEntity
  8
1
  6
Continuous
 62
     2
100
AcDbLine
 10
-47.05820487050212
 20
6.36377325733469
 30
0.0
 11
-47.05820487050212
 21
11.3637732573348
 31
0.0
  0
LINE
  5
115
330
7D
100
AcDbEntity
  8
1
  6
Continuous
 62
     2
100
AcDbLine
 10
-97.0582048705021
 20
6.36377325733469
 30
0.0
 11
-47.05820487050212
 21
6.36377325733469
 31
0.0
  0
LINE
  5
116
330
7D
100
AcDbEntity
  8
1
  6
Continuous
 62
     2
100
AcDbLine
 10
-97.0582048705021
 20
6.36377325733469
 30
0.0
 11
-97.0582048705021
 21
11.3637732573348
 31
0.0
  0
LINE
  5
117
330
7D
100
AcDbEntity
  8
1
  6
Continuous
 62
     2
100
AcDbLine
 10
-147.0582048705023
 20
6.36377325733469
 30
0.0
 11
-97.0582048705021
 21
6.36377325733469
 31
0.0
  0
LINE
  5
118
330
7D
100
AcDbEntity
  8
1
  6
Continuous
 62
     2
100
AcDbLine
 10
-147.0582048705023
 20
6.36377325733469
 30
0.0
 11
-147.0582048705023
 21
11.3637732573348
 31
0.0
  0
LINE
  5
119
330
7D
100
AcDbEntity
  8
1
  6
Continuous
 62
     2
100
AcDbLine
 10
-197.0582048705021
 20
6.36377325733469
 30
0.0
 11
-147.0582048705023
 21
6.36377325733469
 31
0.0
  0
LINE
  5
11A
330
7D
100
AcDbEntity
  8
1
  6
Continuous
 62
     2
100
AcDbLine
 10
-197.0582048705021
 20
6.36377325733469
 30
0.0
 11
-197.0582048705021
 21
11.3637732573348
 31
0.0
  0
LINE
  5
11B
330
7D
100
AcDbEntity
  8
1
  6
Continuous
 62
     6
100
AcDbLine
 10
-240.5582048705004
 20
61.36377325733491
 30
0.0
 11
-240.5582048705002
 21
11.3637732573348
 31
0.0
  0
LINE
  5
11C
330
7D
100
AcDbEntity
  8
1
  6
Continuous
 62
     2
100
AcDbLine
 10
-245.5582048705012
 20
61.36377325733491
 30
0.0
 11
-245.5582048705012
 21
11.3637732573348
 31
0.0
  0
LINE
  5
11D
330
7D
100
AcDbEntity
  8
1
  6
Continuous
 62
     2
100
AcDbLine
 10
-245.5582048705012
 20
61.36377325733491
 30
0.0
 11
-240.5582048705004
 21
61.36377325733491
 31
0.0
  0
LINE
  5
11E
330
7D
100
AcDbEntity
  8
1
  6
Continuous
 62
     6
100
AcDbLine
 10
-240.5582048705006
 20
111.3637732573347
 30
0.0
 11
-240.5582048705004
 21
61.36377325733491
 31
0.0
  0
LINE
  5
11F
330
7D
100
AcDbEntity
  8
1
  6
Continuous
 62
     2
100
AcDbLine
 10
-245.5582048705012
 20
111.3637732573347
 30
0.0
 11
-245.5582048705012
 21
61.36377325733491
 31
0.0
  0
LINE
  5
120
330
7D
100
AcDbEntity
  8
1
  6
Continuous
 62
     2
100
AcDbLine
 10
-245.5582048705012
 20
111.3637732573347
 30
0.0
 11
-240.5582048705006
 21
111.3637732573347
 31
0.0
  0
LINE
  5
121
330
7D
100
AcDbEntity
  8
1
  6
Continuous
 62
     6
100
AcDbLine
 10
-240.5582048705011
 20
161.3637732573348
 30
0.0
 11
-240.5582048705006
 21
111.3637732573347
 31
0.0
  0
LINE
  5
122
330
7D
100
AcDbEntity
  8
1
  6
Continuous
 62
     2
100
AcDbLine
 10
-245.5582048705012
 20
161.3637732573348
 30
0.0
 11
-245.5582048705012
 21
111.3637732573347
 31
0.0
  0
LINE
  5
123
330
7D
100
AcDbEntity
  8
1
  6
Continuous
 62
     2
100
AcDbLine
 10
-245.5582048705012
 20
161.3637732573348
 30
0.0
 11
-240.5582048705011
 21
161.3637732573348
 31
0.0
  0
LINE
  5
124
330
7D
100
AcDbEntity
  8
1
  6
Continuous
 62
     6
100
AcDbLine
 10
-240.5582048705012
 20
196.3637732573348
 30
0.0
 11
-240.5582048705011
 21
161.3637732573348
 31
0.0
  0
LINE
  5
125
330
7D
100
AcDbEntity
  8
1
  6
Continuous
 62
     2
100
AcDbLine
 10
-245.5582048705012
 20
216.3637732573348
 30
0.0
 11
-245.5582048705012
 21
161.3637732573348
 31
0.0
  0
LINE
  5
126
330
7D
100
AcDbEntity
  8
1
  6
Continuous
 62
     2
100
AcDbLine
 10
-245.5582048705012
 20
6.36377325733469
 30
0.0
 11
-240.5582048705002
 21
6.36377325733469
 31
0.0
  0
LINE
  5
127
330
7D
100
AcDbEntity
  8
1
  6
Continuous
 62
     2
100
AcDbLine
 10
-97.0582048705021
 20
216.3637732573348
 30
0.0
 11
-97.0582048705021
 21
207.1550814126335
 31
0.0
  0
LINE
  5
128
330
7D
100
AcDbEntity
  8
1
  6
Continuous
 62
     2
100
AcDbLine
 10
-97.0582048705021
 20
216.3637732573348
 30
0.0
 11
-245.5582048705012
 21
216.3637732573348
 31
0.0
  0
LINE
  5
129
330
7D
100
AcDbEntity
  8
1
  6
Continuous
 62
     2
100
AcDbLine
 10
51.44179512949688
 20
11.3637732573348
 30
0.0
 11
51.44179512949688
 21
61.36377325733491
 31
0.0
  0
LINE
  5
12A
330
7D
100
AcDbEntity
  8
1
  6
Continuous
 62
     2
100
AcDbLine
 10
51.44179512949688
 20
161.3637732573348
 30
0.0
 11
51.44179512949688
 21
216.3637732573348
 31
0.0
  0
LINE
  5
12B
330
7D
100
AcDbEntity
  8
1
  6
Continuous
 62
     6
100
AcDbLine
 10
46.44179512949708
 20
161.3637732573348
 30
0.0
 11
46.44179512949688
 21
196.3637732573348
 31
0.0
  0
LINE
  5
12C
330
7D
100
AcDbEntity
  8
1
  6
Continuous
 62
     2
100
AcDbLine
 10
46.44179512949708
 20
161.3637732573348
 30
0.0
 11
51.44179512949688
 21
161.3637732573348
 31
0.0
  0
LINE
  5
12D
330
7D
100
AcDbEntity
  8
1
  6
Continuous
 62
     2
100
AcDbLine
 10
51.44179512949688
 20
111.3637732573347
 30
0.0
 11
51.44179512949688
 21
161.3637732573348
 31
0.0
  0
LINE
  5
12E
330
7D
100
AcDbEntity
  8
1
  6
Continuous
 62
     6
100
AcDbLine
 10
46.44179512949829
 20
111.3637732573347
 30
0.0
 11
46.44179512949708
 21
161.3637732573348
 31
0.0
  0
LINE
  5
12F
330
7D
100
AcDbEntity
  8
1
  6
Continuous
 62
     2
100
AcDbLine
 10
46.44179512949829
 20
111.3637732573347
 30
0.0
 11
51.44179512949688
 21
111.3637732573347
 31
0.0
  0
LINE
  5
130
330
7D
100
AcDbEntity
  8
1
  6
Continuous
 62
     2
100
AcDbLine
 10
51.44179512949688
 20
61.36377325733491
 30
0.0
 11
51.44179512949688
 21
111.3637732573347
 31
0.0
  0
LINE
  5
131
330
7D
100
AcDbEntity
  8
1
  6
Continuous
 62
     6
100
AcDbLine
 10
46.44179512949879
 20
61.36377325733491
 30
0.0
 11
46.44179512949829
 21
111.3637732573347
 31
0.0
  0
LINE
  5
132
330
7D
100
AcDbEntity
  8
1
  6
Continuous
 62
     2
100
AcDbLine
 10
46.44179512949879
 20
61.36377325733491
 30
0.0
 11
51.44179512949688
 21
61.36377325733491
 31
0.0
  0
LINE
  5
133
330
7D
100
AcDbEntity
  8
1
  6
Continuous
 62
     6
100
AcDbLine
 10
46.44179512949688
 20
196.3637732573348
 30
0.0
 11
-240.5582048705012
 21
196.3637732573348
 31
0.0
  0
LINE
  5
134
330
7D
100
AcDbEntity
  8
1
  6
Continuous
 62
     2
100
AcDbLine
 10
51.44179512949688
 20
216.3637732573348
 30
0.0
 11
-97.0582048705021
 21
216.3637732573348
 31
0.0
  0
LINE
  5
135
330
7D
100
AcDbEntity
  8
1
  6
Continuous
 62
     6
100
AcDbLine
 10
46.44179512949958
 20
28.3637732573348
 30
0.0
 11
46.44179512949879
 21
61.36377325733491
 31
0.0
  0
LINE
  5
136
330
7D
100
AcDbEntity
  8
1
  6
Continuous
 62
     2
100
AcDbLine
 10
46.44179512949789
 20
6.36377325733469
 30
0.0
 11
2.94179512949788
 21
6.36377325733469
 31
0.0
  0
LINE
  5
137
330
7D
100
AcDbEntity
  8
1
  6
Continuous
 62
     2
100
AcDbLine
 10
51.44179512949688
 20
6.36377325733469
 30
0.0
 11
46.44179512949789
 21
6.36377325733469
 31
0.0
  0
LINE
  5
138
330
7D
100
AcDbEntity
  8
1
  6
Continuous
 62
     2
100
AcDbLine
 10
51.44179512949688
 20
6.36377325733469
 30
0.0
 11
51.44179512949688
 21
11.3637732573348
 31
0.0
  0
LINE
  5
139
330
7D
100
AcDbEntity
  8
1
  6
Continuous
 62
     6
100
AcDbLine
 10
-83.10300939725212
 20
28.3637732573348
 30
0.0
 11
-46.7030093972522
 21
28.3637732573348
 31
0.0
  0
LINE
  5
13A
330
7D
100
AcDbEntity
  8
1
  6
Continuous
 62
     2
100
AcDbLine
 10
46.44179512949789
 20
11.3637732573348
 30
0.0
 11
46.44179512949789
 21
6.36377325733469
 31
0.0
  0
LINE
  5
13B
330
7D
100
AcDbEntity
  8
1
  6
Continuous
 62
     2
100
AcDbLine
 10
46.44179512949789
 20
11.3637732573348
 30
0.0
 11
51.44179512949688
 21
11.3637732573348
 31
0.0
  0
LINE
  5
13C
330
7D
100
AcDbEntity
  8
1
  6
Continuous
 62
     6
100
AcDbLine
 10
-47.05820487050212
 20
11.3637732573348
 30
0.0
 11
-64.9030093972521
 21
11.3637732573348
 31
0.0
  0
LINE
  5
13D
330
7D
100
AcDbEntity
  8
1
  6
Continuous
 62
     6
100
AcDbLine
 10
2.94179512949788
 20
11.3637732573348
 30
0.0
 11
46.44179512949789
 21
11.3637732573348
 31
0.0
  0
LINE
  5
13E
330
7D
100
AcDbEntity
  8
1
  6
Continuous
 62
     6
100
AcDbLine
 10
-147.0582048705023
 20
11.3637732573348
 30
0.0
 11
-152.1030093972521
 21
11.3637732573348
 31
0.0
  0
LINE
  5
13F
330
7D
100
AcDbEntity
  8
1
  6
Continuous
 62
     6
100
AcDbLine
 10
-97.0582048705021
 20
11.3637732573348
 30
0.0
 11
-83.10300939725212
 21
11.36377325733469
 31
0.0
  0
LINE
  5
140
102
{ACAD_REACTORS
330
22A
330
22B
102
}
330
7D
100
AcDbEntity
  8
0
  6
Continuous
 62
     2
100
AcDbLine
 10
-75.58838345510532
 20
23.43628801354691
 30
0.0
 11
-75.58838345510532
 21
24.0418233020537
 31
0.0
  0
LINE
  5
141
102
{ACAD_REACTORS
330
22A
330
22B
102
}
330
7D
100
AcDbEntity
  8
0
  6
Continuous
 62
     2
100
AcDbLine
 10
-75.58838345510532
 20
20.63615340691561
 30
0.0
 11
-75.58838345510532
 21
21.21800481361069
 31
0.0
  0
LINE
  5
142
102
{ACAD_REACTORS
330
22C
330
22D
102
}
330
7D
100
AcDbEntity
  8
0
  6
Continuous
 62
     2
100
AcDbLine
 10
-52.95889701962611
 20
20.9258174750386
 30
0.0
 11
-52.95889701962611
 21
18.65727325735111
 31
0.0
  0
LINE
  5
143
102
{ACAD_REACTORS
330
22C
330
22D
102
}
330
7D
100
AcDbEntity
  8
0
  6
Continuous
 62
     2
100
AcDbLine
 10
-54.3399507986137
 20
21.71108278116171
 30
0.0
 11
-50.95500527998502
 21
21.71108278116219
 31
0.0
  0
LINE
  5
144
102
{ACAD_REACTORS
330
22C
330
22D
102
}
330
7D
100
AcDbEntity
  8
0
  6
Continuous
 62
     2
100
AcDbLine
 10
-50.95500527998502
 20
20.9258174750386
 30
0.0
 11
-50.95500527998502
 21
21.71108278116219
 31
0.0
  0
LINE
  5
145
102
{ACAD_REACTORS
330
22C
330
22D
102
}
330
7D
100
AcDbEntity
  8
0
  6
Continuous
 62
     2
100
AcDbLine
 10
-51.7661043174584
 20
20.9258174750386
 30
0.0
 11
-50.95500527998502
 21
20.9258174750386
 31
0.0
  0
LINE
  5
146
102
{ACAD_REACTORS
330
22C
330
22D
102
}
330
7D
100
AcDbEntity
  8
0
  6
Continuous
 62
     2
100
AcDbLine
 10
-51.7661043174584
 20
18.65727325735111
 30
0.0
 11
-51.7661043174584
 21
20.9258174750386
 31
0.0
  0
LINE
  5
147
102
{ACAD_REACTORS
330
22C
330
22D
102
}
330
7D
100
AcDbEntity
  8
0
  6
Continuous
 62
     2
100
AcDbLine
 10
-52.95889701962611
 20
18.65727325735111
 30
0.0
 11
-51.7661043174584
 21
18.65727325735111
 31
0.0
  0
LINE
  5
148
102
{ACAD_REACTORS
330
222
330
223
102
}
330
7D
100
AcDbEntity
  8
0
  6
Continuous
 62
     2
100
AcDbLine
 10
-53.65548795769061
 20
25.0702732573366
 30
0.0
 11
-55.05821217543991
 21
25.0702732573366
 31
0.0
  0
LINE
  5
149
102
{ACAD_REACTORS
330
222
330
223
102
}
330
7D
100
AcDbEntity
  8
0
  6
Continuous
 62
     2
100
AcDbLine
 10
-53.65548795769061
 20
25.0702732573366
 30
0.0
 11
-53.05432043579882
 21
24.39044993578111
 31
0.0
  0
LINE
  5
14A
102
{ACAD_REACTORS
330
222
330
223
102
}
330
7D
100
AcDbEntity
  8
0
  6
Continuous
 62
     2
100
AcDbLine
 10
-53.05432043579882
 20
24.39044993578111
 30
0.0
 11
-52.45315291390602
 21
25.0702732573366
 31
0.0
  0
LINE
  5
14B
102
{ACAD_REACTORS
330
222
330
223
102
}
330
7D
100
AcDbEntity
  8
0
  6
Continuous
 62
     2
100
AcDbLine
 10
-52.35295832692532
 20
23.59732272730039
 30
0.0
 11
-51.0504286961588
 21
25.0702732573366
 31
0.0
  0
LINE
  5
14C
102
{ACAD_REACTORS
330
222
330
223
102
}
330
7D
100
AcDbEntity
  8
0
  6
Continuous
 62
     2
100
AcDbLine
 10
-52.35295832692532
 20
23.59732272730039
 30
0.0
 11
-50.95500527998502
 21
22.0164637335254
 31
0.0
  0
LINE
  5
14D
102
{ACAD_REACTORS
330
222
330
223
102
}
330
7D
100
AcDbEntity
  8
0
  6
Continuous
 62
     2
100
AcDbLine
 10
-52.35772949773332
 20
22.0164637335254
 30
0.0
 11
-50.95500527998502
 21
22.0164637335254
 31
0.0
  0
LINE
  5
14E
102
{ACAD_REACTORS
330
222
330
223
102
}
330
7D
100
AcDbEntity
  8
0
  6
Continuous
 62
     2
100
AcDbLine
 10
-53.05432043579882
 20
22.80419551881911
 30
0.0
 11
-52.35772949773332
 21
22.0164637335254
 31
0.0
  0
LINE
  5
14F
102
{ACAD_REACTORS
330
220
330
221
102
}
330
7D
100
AcDbEntity
  8
0
  6
Continuous
 62
     2
100
AcDbLine
 10
-56.5134192720825
 20
25.0702732573366
 30
0.0
 11
-55.27291486182961
 21
25.0702732573366
 31
0.0
  0
LINE
  5
150
102
{ACAD_REACTORS
330
220
330
221
102
}
330
7D
100
AcDbEntity
  8
0
  6
Continuous
 62
     2
100
AcDbLine
 10
-55.27291486182961
 20
25.0702732573366
 30
0.0
 11
-55.27291486182961
 21
22.0164637335254
 31
0.0
  0
LINE
  5
151
102
{ACAD_REACTORS
330
220
330
221
102
}
330
7D
100
AcDbEntity
  8
0
  6
Continuous
 62
     2
100
AcDbLine
 10
-56.5134192720825
 20
22.0164637335254
 30
0.0
 11
-56.5134192720825
 21
25.0702732573366
 31
0.0
  0
LINE
  5
152
102
{ACAD_REACTORS
330
21E
330
21F
102
}
330
7D
100
AcDbEntity
  8
0
  6
Continuous
 62
     2
100
AcDbLine
 10
-57.98172935462011
 20
19.87879706687559
 30
0.0
 11
-57.68156411742771
 21
20.64661203286229
 31
0.0
  0
LINE
  5
153
102
{ACAD_REACTORS
330
21E
330
21F
102
}
330
7D
100
AcDbEntity
  8
0
  6
Continuous
 62
     2
100
AcDbLine
 10
-58.45926495924093
 20
18.65727325735111
 30
0.0
 11
-58.24778490576512
 21
19.19823380156899
 31
0.0
  0
LINE
  5
154
102
{ACAD_REACTORS
330
21E
330
21F
102
}
330
7D
100
AcDbEntity
  8
0
  6
Continuous
 62
     2
100
AcDbLine
 10
-58.3018163225546
 20
21.71108278116219
 30
0.0
 11
-59.69976936949391
 21
18.65727325735111
 31
0.0
  0
LINE
  5
155
102
{ACAD_REACTORS
330
21E
330
21F
102
}
330
7D
100
AcDbEntity
  8
0
  6
Continuous
 62
     2
100
AcDbLine
 10
-55.6633588653616
 20
18.65727325735111
 30
0.0
 11
-56.90386327561552
 21
18.65727325735111
 31
0.0
  0
LINE
  5
156
102
{ACAD_REACTORS
330
21E
330
21F
102
}
330
7D
100
AcDbEntity
  8
0
  6
Continuous
 62
     2
100
AcDbLine
 10
-58.24778490576512
 20
19.19823380156899
 30
0.0
 11
-57.1153433290913
 21
19.19823380156899
 31
0.0
  0
LINE
  5
157
102
{ACAD_REACTORS
330
21C
330
21D
102
}
330
7D
100
AcDbEntity
  8
0
  6
Continuous
 62
     2
100
AcDbLine
 10
-61.85728150867612
 20
20.9258174750386
 30
0.0
 11
-61.04618247120152
 21
20.9258174750386
 31
0.0
  0
LINE
  5
158
102
{ACAD_REACTORS
330
21C
330
21D
102
}
330
7D
100
AcDbEntity
  8
0
  6
Continuous
 62
     2
100
AcDbLine
 10
-59.0422907315625
 20
21.71108278116219
 30
0.0
 11
-61.85728150867612
 21
21.71108278116219
 31
0.0
  0
LINE
  5
159
102
{ACAD_REACTORS
330
21C
330
21D
102
}
330
7D
100
AcDbEntity
  8
0
  6
Continuous
 62
     2
100
AcDbLine
 10
-59.0422907315625
 20
20.9258174750386
 30
0.0
 11
-59.0422907315625
 21
21.71108278116219
 31
0.0
  0
LINE
  5
15A
102
{ACAD_REACTORS
330
21C
330
21D
102
}
330
7D
100
AcDbEntity
  8
0
  6
Continuous
 62
     2
100
AcDbLine
 10
-59.85338976903501
 20
20.9258174750386
 30
0.0
 11
-59.0422907315625
 21
20.9258174750386
 31
0.0
  0
LINE
  5
15B
102
{ACAD_REACTORS
330
21C
330
21D
102
}
330
7D
100
AcDbEntity
  8
0
  6
Continuous
 62
     2
100
AcDbLine
 10
-59.85338976903501
 20
18.65727325735111
 30
0.0
 11
-59.85338976903501
 21
20.9258174750386
 31
0.0
  0
LINE
  5
15C
102
{ACAD_REACTORS
330
21A
330
21B
102
}
330
7D
100
AcDbEntity
  8
0
  6
Continuous
 62
     2
100
AcDbLine
 10
-59.18527492493701
 20
22.0164637335254
 30
0.0
 11
-59.18527492493701
 21
23.3252392437301
 31
0.0
  0
LINE
  5
15D
102
{ACAD_REACTORS
330
21A
330
21B
102
}
330
7D
100
AcDbEntity
  8
0
  6
Continuous
 62
     2
100
AcDbLine
 10
-60.37806762710352
 20
25.0702732573366
 30
0.0
 11
-60.37806762710352
 21
22.0164637335254
 31
0.0
  0
LINE
  5
15E
102
{ACAD_REACTORS
330
21A
330
21B
102
}
330
7D
100
AcDbEntity
  8
0
  6
Continuous
 62
     2
100
AcDbLine
 10
-59.18527492493701
 20
25.0702732573366
 30
0.0
 11
-60.37806762710352
 21
25.0702732573366
 31
0.0
  0
LINE
  5
15F
102
{ACAD_REACTORS
330
21A
330
21B
102
}
330
7D
100
AcDbEntity
  8
0
  6
Continuous
 62
     2
100
AcDbLine
 10
-57.944770514683
 20
25.0702732573366
 30
0.0
 11
-57.944770514683
 21
23.76149774713142
 31
0.0
  0
LINE
  5
160
102
{ACAD_REACTORS
330
218
330
219
102
}
330
7D
100
AcDbEntity
  8
0
  6
Continuous
 62
     2
100
AcDbLine
 10
-65.62650644752321
 20
21.71108278116219
 30
0.0
 11
-65.62650644752321
 21
18.65727325735111
 31
0.0
  0
LINE
  5
161
102
{ACAD_REACTORS
330
218
330
219
102
}
330
7D
100
AcDbEntity
  8
0
  6
Continuous
 62
     2
100
AcDbLine
 10
-64.43371374535562
 20
21.71108278116219
 30
0.0
 11
-65.62650644752321
 21
21.71108278116219
 31
0.0
  0
LINE
  5
162
102
{ACAD_REACTORS
330
218
330
219
102
}
330
7D
100
AcDbEntity
  8
0
  6
Continuous
 62
     2
100
AcDbLine
 10
-63.19320933510272
 20
18.65727325735111
 30
0.0
 11
-62.00041663293632
 21
18.65727325735111
 31
0.0
  0
LINE
  5
163
102
{ACAD_REACTORS
330
218
330
219
102
}
330
7D
100
AcDbEntity
  8
0
  6
Continuous
 62
     2
100
AcDbLine
 10
-65.62650644752321
 20
18.65727325735111
 30
0.0
 11
-64.43371374535562
 21
18.65727325735111
 31
0.0
  0
LINE
  5
164
102
{ACAD_REACTORS
330
228
330
229
102
}
330
7D
100
AcDbEntity
  8
0
  6
Continuous
 62
     2
100
AcDbLine
 10
-61.9525539939641
 20
23.8923752981519
 30
0.0
 11
-61.9525539939641
 21
24.37225965189361
 31
0.0
  0
LINE
  5
165
102
{ACAD_REACTORS
330
228
330
229
102
}
330
7D
100
AcDbEntity
  8
0
  6
Continuous
 62
     2
100
AcDbLine
 10
-60.61662616753642
 20
23.8923752981519
 30
0.0
 11
-61.9525539939641
 21
23.8923752981519
 31
0.0
  0
LINE
  5
166
102
{ACAD_REACTORS
330
228
330
229
102
}
330
7D
100
AcDbEntity
  8
0
  6
Continuous
 62
     2
100
AcDbLine
 10
-60.61662616753642
 20
23.19436169270961
 30
0.0
 11
-60.61662616753642
 21
23.8923752981519
 31
0.0
  0
LINE
  5
167
102
{ACAD_REACTORS
330
228
330
229
102
}
330
7D
100
AcDbEntity
  8
0
  6
Continuous
 62
     2
100
AcDbLine
 10
-61.9525539939641
 20
23.19436169270961
 30
0.0
 11
-60.61662616753642
 21
23.19436169270961
 31
0.0
  0
LINE
  5
168
102
{ACAD_REACTORS
330
216
330
217
102
}
330
7D
100
AcDbEntity
  8
0
  6
Continuous
 62
     2
100
AcDbLine
 10
-65.43550868429102
 20
25.0702732573366
 30
0.0
 11
-65.43550868429102
 21
22.0164637335254
 31
0.0
  0
LINE
  5
169
102
{ACAD_REACTORS
330
216
330
217
102
}
330
7D
100
AcDbEntity
  8
0
  6
Continuous
 62
     2
100
AcDbLine
 10
-65.43550868429102
 20
22.0164637335254
 30
0.0
 11
-66.62830138645742
 21
22.0164637335254
 31
0.0
  0
LINE
  5
16A
102
{ACAD_REACTORS
330
216
330
217
102
}
330
7D
100
AcDbEntity
  8
0
  6
Continuous
 62
     2
100
AcDbLine
 10
-66.62830138645742
 20
22.0164637335254
 30
0.0
 11
-66.62830138645742
 21
23.15073584236922
 31
0.0
  0
LINE
  5
16B
102
{ACAD_REACTORS
330
216
330
217
102
}
330
7D
100
AcDbEntity
  8
0
  6
Continuous
 62
     2
100
AcDbLine
 10
-67.6779589643649
 20
22.0164637335254
 30
0.0
 11
-68.8707516665315
 21
22.0164637335254
 31
0.0
  0
LINE
  5
16C
102
{ACAD_REACTORS
330
216
330
217
102
}
330
7D
100
AcDbEntity
  8
0
  6
Continuous
 62
     2
100
AcDbLine
 10
-68.8707516665315
 20
25.0702732573366
 30
0.0
 11
-67.6779589643649
 21
25.0702732573366
 31
0.0
  0
LINE
  5
16D
102
{ACAD_REACTORS
330
216
330
217
102
}
330
7D
100
AcDbEntity
  8
0
  6
Continuous
 62
     2
100
AcDbLine
 10
-67.6779589643649
 20
25.0702732573366
 30
0.0
 11
-67.6779589643649
 21
24.001439924002
 31
0.0
  0
LINE
  5
16E
102
{ACAD_REACTORS
330
216
330
217
102
}
330
7D
100
AcDbEntity
  8
0
  6
Continuous
 62
     2
100
AcDbLine
 10
-67.6779589643649
 20
24.001439924002
 30
0.0
 11
-66.62830138645742
 21
24.001439924002
 31
0.0
  0
LINE
  5
16F
102
{ACAD_REACTORS
330
224
330
225
102
}
330
7D
100
AcDbEntity
  8
0
  6
Continuous
 62
     2
100
AcDbLine
 10
-70.8269316980851
 20
24.4071674118965
 30
0.0
 11
-70.5096366365432
 21
24.4071674118965
 31
0.0
  0
LINE
  5
170
102
{ACAD_REACTORS
330
224
330
225
102
}
330
7D
100
AcDbEntity
  8
0
  6
Continuous
 62
     2
100
AcDbLine
 10
-70.8269316980851
 20
23.70143976255429
 30
0.0
 11
-70.5096366365432
 21
23.70143976255429
 31
0.0
  0
LINE
  5
171
102
{ACAD_REACTORS
330
224
330
225
102
}
330
7D
100
AcDbEntity
  8
0
  6
Continuous
 62
     2
100
AcDbLine
 10
-72.06743610833922
 20
25.0702732573366
 30
0.0
 11
-72.06743610833922
 21
22.0164637335254
 31
0.0
  0
LINE
  5
172
102
{ACAD_REACTORS
330
224
330
225
102
}
330
7D
100
AcDbEntity
  8
0
  6
Continuous
 62
     2
100
AcDbLine
 10
-72.06743610833922
 20
25.0702732573366
 30
0.0
 11
-70.06816411030482
 21
25.0702732573366
 31
0.0
  0
LINE
  5
173
102
{ACAD_REACTORS
330
224
330
225
102
}
330
7D
100
AcDbEntity
  8
0
  6
Continuous
 62
     2
100
AcDbLine
 10
-70.8269316980851
 20
22.95954197466921
 30
0.0
 11
-70.06816411030482
 21
22.95954197466921
 31
0.0
  0
LINE
  5
174
102
{ACAD_REACTORS
330
22A
330
22B
102
}
330
7D
100
AcDbEntity
  8
0
  6
Continuous
 62
     2
100
AcDbLine
 10
-78.16393214163591
 20
24.04200077870181
 30
0.0
 11
-78.16393214163591
 21
19.6855457359847
 31
0.0
  0
LINE
  5
175
102
{ACAD_REACTORS
330
22A
330
22B
102
}
330
7D
100
AcDbEntity
  8
0
  6
Continuous
 62
     2
100
AcDbLine
 10
-77.84821521856023
 20
24.357717701778
 30
0.0
 11
-76.3723819575506
 21
24.357717701778
 31
0.0
  0
LINE
  5
176
102
{ACAD_REACTORS
330
22A
330
22B
102
}
330
7D
100
AcDbEntity
  8
0
  6
Continuous
 62
     2
100
AcDbLine
 10
-76.05666503447401
 20
23.4379761596413
 30
0.0
 11
-76.05666503447401
 21
24.04200077870181
 31
0.0
  0
LINE
  5
177
102
{ACAD_REACTORS
330
22A
330
22B
102
}
330
7D
100
AcDbEntity
  8
0
  6
Continuous
 62
     2
100
AcDbLine
 10
-76.05666503447401
 20
19.6855457359847
 30
0.0
 11
-76.05666503447401
 21
21.21631666751631
 31
0.0
  0
LINE
  5
178
102
{ACAD_REACTORS
330
22A
330
22B
102
}
330
7D
100
AcDbEntity
  8
0
  6
Continuous
 62
     2
100
AcDbLine
 10
-72.96879780458991
 20
18.65727325735111
 30
0.0
 11
-78.44210989530671
 21
18.65727325735111
 31
0.0
  0
LINE
  5
179
102
{ACAD_REACTORS
330
22A
330
22B
102
}
330
7D
100
AcDbEntity
  8
0
  6
Continuous
 62
     2
100
AcDbLine
 10
-72.54455318920603
 20
24.64602864193461
 30
0.0
 11
-72.54455318920603
 21
19.0815178727344
 31
0.0
  0
LINE
  5
17A
102
{ACAD_REACTORS
330
22A
330
22B
102
}
330
7D
100
AcDbEntity
  8
0
  6
Continuous
 62
     2
100
AcDbLine
 10
-78.44210989530671
 20
25.07027325731841
 30
0.0
 11
-72.96879780458991
 21
25.07027325731841
 31
0.0
  0
LINE
  5
17B
102
{ACAD_REACTORS
330
22A
330
22B
102
}
330
7D
100
AcDbEntity
  8
0
  6
Continuous
 62
     2
100
AcDbLine
 10
-78.86635451068952
 20
24.64602864193461
 30
0.0
 11
-78.86635451068952
 21
19.0815178727344
 31
0.0
  0
LINE
  5
17C
102
{ACAD_REACTORS
330
22A
330
22B
102
}
330
7D
100
AcDbEntity
  8
0
  6
Continuous
 62
     2
100
AcDbLine
 10
-76.3723819575506
 20
19.369828812908
 30
0.0
 11
-77.84821521856023
 21
19.369828812908
 31
0.0
  0
LINE
  5
17D
102
{ACAD_REACTORS
330
224
330
225
102
}
330
7D
100
AcDbEntity
  8
0
  6
Continuous
 62
     2
100
AcDbLine
 10
-70.8269316980851
 20
22.0164637335254
 30
0.0
 11
-70.8269316980851
 21
22.95954197466921
 31
0.0
  0
LINE
  5
17E
102
{ACAD_REACTORS
330
224
330
225
102
}
330
7D
100
AcDbEntity
  8
0
  6
Continuous
 62
     2
100
AcDbLine
 10
-72.06743610833922
 20
22.0164637335254
 30
0.0
 11
-70.8269316980851
 21
22.0164637335254
 31
0.0
  0
LINE
  5
17F
102
{ACAD_REACTORS
330
224
330
225
102
}
330
7D
100
AcDbEntity
  8
0
  6
Continuous
 62
     2
100
AcDbLine
 10
-70.8269316980851
 20
23.70143976255429
 30
0.0
 11
-70.8269316980851
 21
24.4071674118965
 31
0.0
  0
LINE
  5
180
102
{ACAD_REACTORS
330
216
330
217
102
}
330
7D
100
AcDbEntity
  8
0
  6
Continuous
 62
     2
100
AcDbLine
 10
-68.8707516665315
 20
25.0702732573366
 30
0.0
 11
-68.8707516665315
 21
22.0164637335254
 31
0.0
  0
LINE
  5
181
102
{ACAD_REACTORS
330
216
330
217
102
}
330
7D
100
AcDbEntity
  8
0
  6
Continuous
 62
     2
100
AcDbLine
 10
-67.6779589643649
 20
23.15073584236922
 30
0.0
 11
-67.6779589643649
 21
22.0164637335254
 31
0.0
  0
LINE
  5
182
102
{ACAD_REACTORS
330
216
330
217
102
}
330
7D
100
AcDbEntity
  8
0
  6
Continuous
 62
     2
100
AcDbLine
 10
-66.62830138645742
 20
23.15073584236922
 30
0.0
 11
-67.6779589643649
 21
23.15073584236922
 31
0.0
  0
LINE
  5
183
102
{ACAD_REACTORS
330
216
330
217
102
}
330
7D
100
AcDbEntity
  8
0
  6
Continuous
 62
     2
100
AcDbLine
 10
-66.62830138645742
 20
25.0702732573366
 30
0.0
 11
-65.43550868429102
 21
25.0702732573366
 31
0.0
  0
LINE
  5
184
102
{ACAD_REACTORS
330
216
330
217
102
}
330
7D
100
AcDbEntity
  8
0
  6
Continuous
 62
     2
100
AcDbLine
 10
-66.62830138645742
 20
24.001439924002
 30
0.0
 11
-66.62830138645742
 21
25.0702732573366
 31
0.0
  0
LINE
  5
185
102
{ACAD_REACTORS
330
228
330
229
102
}
330
7D
100
AcDbEntity
  8
0
  6
Continuous
 62
     2
100
AcDbLine
 10
-60.61662616753642
 20
24.37225965189361
 30
0.0
 11
-60.61662616753642
 21
25.0702732573366
 31
0.0
  0
LINE
  5
186
102
{ACAD_REACTORS
330
228
330
229
102
}
330
7D
100
AcDbEntity
  8
0
  6
Continuous
 62
     2
100
AcDbLine
 10
-63.76694589131742
 20
25.0702732573366
 30
0.0
 11
-60.61662616753642
 21
25.0702732573366
 31
0.0
  0
LINE
  5
187
102
{ACAD_REACTORS
330
228
330
229
102
}
330
7D
100
AcDbEntity
  8
0
  6
Continuous
 62
     2
100
AcDbLine
 10
-63.76694589131742
 20
22.0164637335254
 30
0.0
 11
-60.61662616753642
 21
22.0164637335254
 31
0.0
  0
LINE
  5
188
102
{ACAD_REACTORS
330
228
330
229
102
}
330
7D
100
AcDbEntity
  8
0
  6
Continuous
 62
     2
100
AcDbLine
 10
-60.61662616753642
 20
22.0164637335254
 30
0.0
 11
-60.61662616753642
 21
22.7144773389679
 31
0.0
  0
LINE
  5
189
102
{ACAD_REACTORS
330
228
330
229
102
}
330
7D
100
AcDbEntity
  8
0
  6
Continuous
 62
     2
100
AcDbLine
 10
-60.61662616753642
 20
22.7144773389679
 30
0.0
 11
-61.9525539939641
 21
22.7144773389679
 31
0.0
  0
LINE
  5
18A
102
{ACAD_REACTORS
330
228
330
229
102
}
330
7D
100
AcDbEntity
  8
0
  6
Continuous
 62
     2
100
AcDbLine
 10
-61.9525539939641
 20
22.7144773389679
 30
0.0
 11
-61.9525539939641
 21
23.19436169270961
 31
0.0
  0
LINE
  5
18B
102
{ACAD_REACTORS
330
228
330
229
102
}
330
7D
100
AcDbEntity
  8
0
  6
Continuous
 62
     2
100
AcDbLine
 10
-61.9525539939641
 20
24.37225965189361
 30
0.0
 11
-60.61662616753642
 21
24.37225965189361
 31
0.0
  0
LINE
  5
18C
102
{ACAD_REACTORS
330
218
330
219
102
}
330
7D
100
AcDbEntity
  8
0
  6
Continuous
 62
     2
100
AcDbLine
 10
-64.43371374535562
 20
18.65727325735111
 30
0.0
 11
-64.43371374535562
 21
19.96604876755569
 31
0.0
  0
LINE
  5
18D
102
{ACAD_REACTORS
330
218
330
219
102
}
330
7D
100
AcDbEntity
  8
0
  6
Continuous
 62
     2
100
AcDbLine
 10
-64.43371374535562
 20
19.96604876755569
 30
0.0
 11
-63.19320933510272
 21
18.65727325735111
 31
0.0
  0
LINE
  5
18E
102
{ACAD_REACTORS
330
218
330
219
102
}
330
7D
100
AcDbEntity
  8
0
  6
Continuous
 62
     2
100
AcDbLine
 10
-62.00041663293632
 20
18.65727325735111
 30
0.0
 11
-62.00041663293632
 21
21.71108278116219
 31
0.0
  0
LINE
  5
18F
102
{ACAD_REACTORS
330
218
330
219
102
}
330
7D
100
AcDbEntity
  8
0
  6
Continuous
 62
     2
100
AcDbLine
 10
-62.00041663293632
 20
21.71108278116219
 30
0.0
 11
-63.19320933510272
 21
21.71108278116219
 31
0.0
  0
LINE
  5
190
102
{ACAD_REACTORS
330
218
330
219
102
}
330
7D
100
AcDbEntity
  8
0
  6
Continuous
 62
     2
100
AcDbLine
 10
-63.19320933510272
 20
21.71108278116219
 30
0.0
 11
-63.19320933510272
 21
20.4023072709571
 31
0.0
  0
LINE
  5
191
102
{ACAD_REACTORS
330
218
330
219
102
}
330
7D
100
AcDbEntity
  8
0
  6
Continuous
 62
     2
100
AcDbLine
 10
-63.19320933510272
 20
20.4023072709571
 30
0.0
 11
-64.43371374535562
 21
21.71108278116219
 31
0.0
  0
LINE
  5
192
102
{ACAD_REACTORS
330
21A
330
21B
102
}
330
7D
100
AcDbEntity
  8
0
  6
Continuous
 62
     2
100
AcDbLine
 10
-59.18527492493701
 20
23.3252392437301
 30
0.0
 11
-57.944770514683
 21
22.0164637335254
 31
0.0
  0
LINE
  5
193
102
{ACAD_REACTORS
330
21A
330
21B
102
}
330
7D
100
AcDbEntity
  8
0
  6
Continuous
 62
     2
100
AcDbLine
 10
-57.944770514683
 20
22.0164637335254
 30
0.0
 11
-56.7519778125164
 21
22.0164637335254
 31
0.0
  0
LINE
  5
194
102
{ACAD_REACTORS
330
21A
330
21B
102
}
330
7D
100
AcDbEntity
  8
0
  6
Continuous
 62
     2
100
AcDbLine
 10
-56.7519778125164
 20
22.0164637335254
 30
0.0
 11
-56.7519778125164
 21
25.0702732573366
 31
0.0
  0
LINE
  5
195
102
{ACAD_REACTORS
330
21A
330
21B
102
}
330
7D
100
AcDbEntity
  8
0
  6
Continuous
 62
     2
100
AcDbLine
 10
-56.7519778125164
 20
25.0702732573366
 30
0.0
 11
-57.944770514683
 21
25.0702732573366
 31
0.0
  0
LINE
  5
196
102
{ACAD_REACTORS
330
21A
330
21B
102
}
330
7D
100
AcDbEntity
  8
0
  6
Continuous
 62
     2
100
AcDbLine
 10
-57.944770514683
 20
23.76149774713142
 30
0.0
 11
-59.18527492493701
 21
25.0702732573366
 31
0.0
  0
LINE
  5
197
102
{ACAD_REACTORS
330
21A
330
21B
102
}
330
7D
100
AcDbEntity
  8
0
  6
Continuous
 62
     2
100
AcDbLine
 10
-60.37806762710352
 20
22.0164637335254
 30
0.0
 11
-59.18527492493701
 21
22.0164637335254
 31
0.0
  0
LINE
  5
198
102
{ACAD_REACTORS
330
21C
330
21D
102
}
330
7D
100
AcDbEntity
  8
0
  6
Continuous
 62
     2
100
AcDbLine
 10
-61.85728150867612
 20
21.71108278116219
 30
0.0
 11
-61.85728150867612
 21
20.9258174750386
 31
0.0
  0
LINE
  5
199
102
{ACAD_REACTORS
330
21C
330
21D
102
}
330
7D
100
AcDbEntity
  8
0
  6
Continuous
 62
     2
100
AcDbLine
 10
-61.04618247120152
 20
20.9258174750386
 30
0.0
 11
-61.04618247120152
 21
18.65727325735111
 31
0.0
  0
LINE
  5
19A
102
{ACAD_REACTORS
330
21C
330
21D
102
}
330
7D
100
AcDbEntity
  8
0
  6
Continuous
 62
     2
100
AcDbLine
 10
-61.04618247120152
 20
18.65727325735111
 30
0.0
 11
-59.85338976903501
 21
18.65727325735111
 31
0.0
  0
LINE
  5
19B
102
{ACAD_REACTORS
330
21E
330
21F
102
}
330
7D
100
AcDbEntity
  8
0
  6
Continuous
 62
     2
100
AcDbLine
 10
-56.90386327561552
 20
18.65727325735111
 30
0.0
 11
-57.1153433290913
 21
19.19823380156899
 31
0.0
  0
LINE
  5
19C
102
{ACAD_REACTORS
330
21E
330
21F
102
}
330
7D
100
AcDbEntity
  8
0
  6
Continuous
 62
     2
100
AcDbLine
 10
-57.0613119123019
 20
21.71108278116219
 30
0.0
 11
-55.6633588653616
 21
18.65727325735111
 31
0.0
  0
LINE
  5
19D
102
{ACAD_REACTORS
330
21E
330
21F
102
}
330
7D
100
AcDbEntity
  8
0
  6
Continuous
 62
     2
100
AcDbLine
 10
-58.3018163225546
 20
21.71108278116219
 30
0.0
 11
-57.0613119123019
 21
21.71108278116219
 31
0.0
  0
LINE
  5
19E
102
{ACAD_REACTORS
330
21E
330
21F
102
}
330
7D
100
AcDbEntity
  8
0
  6
Continuous
 62
     2
100
AcDbLine
 10
-59.69976936949391
 20
18.65727325735111
 30
0.0
 11
-58.45926495924093
 21
18.65727325735111
 31
0.0
  0
LINE
  5
19F
102
{ACAD_REACTORS
330
21E
330
21F
102
}
330
7D
100
AcDbEntity
  8
0
  6
Continuous
 62
     2
100
AcDbLine
 10
-57.98172935462011
 20
19.87879706687559
 30
0.0
 11
-57.38139888023761
 21
19.87879706687559
 31
0.0
  0
LINE
  5
1A0
102
{ACAD_REACTORS
330
21E
330
21F
102
}
330
7D
100
AcDbEntity
  8
0
  6
Continuous
 62
     2
100
AcDbLine
 10
-57.38139888023761
 20
19.87879706687559
 30
0.0
 11
-57.68156411742771
 21
20.64661203286229
 31
0.0
  0
LINE
  5
1A1
102
{ACAD_REACTORS
330
220
330
221
102
}
330
7D
100
AcDbEntity
  8
0
  6
Continuous
 62
     2
100
AcDbLine
 10
-55.27291486182961
 20
22.0164637335254
 30
0.0
 11
-56.5134192720825
 21
22.0164637335254
 31
0.0
  0
LINE
  5
1A2
102
{ACAD_REACTORS
330
222
330
223
102
}
330
7D
100
AcDbEntity
  8
0
  6
Continuous
 62
     2
100
AcDbLine
 10
-53.75091137386451
 20
22.0164637335254
 30
0.0
 11
-55.15363559161273
 21
22.0164637335254
 31
0.0
  0
LINE
  5
1A3
102
{ACAD_REACTORS
330
222
330
223
102
}
330
7D
100
AcDbEntity
  8
0
  6
Continuous
 62
     2
100
AcDbLine
 10
-53.75091137386451
 20
22.0164637335254
 30
0.0
 11
-53.05432043579882
 21
22.80419551881911
 31
0.0
  0
LINE
  5
1A4
102
{ACAD_REACTORS
330
222
330
223
102
}
330
7D
100
AcDbEntity
  8
0
  6
Continuous
 62
     2
100
AcDbLine
 10
-52.45315291390602
 20
25.0702732573366
 30
0.0
 11
-51.0504286961588
 21
25.0702732573366
 31
0.0
  0
LINE
  5
1A5
102
{ACAD_REACTORS
330
222
330
223
102
}
330
7D
100
AcDbEntity
  8
0
  6
Continuous
 62
     2
100
AcDbLine
 10
-55.05821217543991
 20
25.0702732573366
 30
0.0
 11
-53.75568254467243
 21
23.59732272730039
 31
0.0
  0
LINE
  5
1A6
102
{ACAD_REACTORS
330
222
330
223
102
}
330
7D
100
AcDbEntity
  8
0
  6
Continuous
 62
     2
100
AcDbLine
 10
-55.15363559161273
 20
22.0164637335254
 30
0.0
 11
-53.75568254467243
 21
23.59732272730039
 31
0.0
  0
LINE
  5
1A7
102
{ACAD_REACTORS
330
22C
330
22D
102
}
330
7D
100
AcDbEntity
  8
0
  6
Continuous
 62
     2
100
AcDbLine
 10
-53.2928789762328
 20
19.70429366551471
 30
0.0
 11
-53.2928789762328
 21
18.83177665871139
 31
0.0
  0
LINE
  5
1A8
102
{ACAD_REACTORS
330
22C
330
22D
102
}
330
7D
100
AcDbEntity
  8
0
  6
Continuous
 62
     2
100
AcDbLine
 10
-54.06253631919421
 20
20.9258174750386
 30
0.0
 11
-52.95889701962611
 21
20.9258174750386
 31
0.0
  0
LINE
  5
1A9
102
{ACAD_REACTORS
330
22E
330
22F
102
}
330
7D
100
AcDbEntity
  8
0
  6
Continuous
 62
     2
100
AcDbLine
 10
-69.39558045548472
 20
19.7042936655152
 30
0.0
 11
-69.39558045548472
 21
18.83177665871199
 31
0.0
  0
LINE
  5
1AA
102
{ACAD_REACTORS
330
22E
330
22F
102
}
330
7D
100
AcDbEntity
  8
0
  6
Continuous
 62
     2
100
AcDbLine
 10
-69.39558045548472
 20
20.6640623729981
 30
0.0
 11
-69.39558045548472
 21
21.5365793798014
 31
0.0
  0
LINE
  5
1AB
330
7D
100
AcDbEntity
  8
1
  6
Continuous
 62
     7
100
AcDbLine
 10
46.44179512949918
 20
19.8637732573348
 30
0.0
 11
-46.7030093972522
 21
19.8637732573348
 31
0.0
  0
LINE
  5
1AC
330
7D
100
AcDbEntity
  8
1
  6
Continuous
 62
     6
100
AcDbLine
 10
-152.1030093972521
 20
11.3637732573348
 30
0.0
 11
-197.0582048705021
 21
11.3637732573348
 31
0.0
  0
LINE
  5
1AD
330
7D
100
AcDbEntity
  8
1
  6
Continuous
 62
     7
100
AcDbLine
 10
37.52338684782038
 20
36.8637732573348
 30
0.0
 11
37.52338684782038
 21
28.3637732573348
 31
0.0
  0
LINE
  5
1AE
330
7D
100
AcDbEntity
  8
1
  6
Continuous
 62
     7
100
AcDbLine
 10
11.02338684782077
 20
36.8637732573348
 30
0.0
 11
11.02338684782077
 21
28.3637732573348
 31
0.0
  0
LINE
  5
1AF
330
7D
100
AcDbEntity
  8
1
  6
Continuous
 62
     7
100
AcDbLine
 10
-46.7030093972522
 20
28.3637732573348
 30
0.0
 11
-46.7030093972522
 21
36.8637732573348
 31
0.0
  0
LINE
  5
1B0
330
7D
100
AcDbEntity
  8
1
  6
Continuous
 62
     7
100
AcDbLine
 10
-83.10300939725212
 20
28.3637732573348
 30
0.0
 11
-83.10300939725212
 21
36.8637732573348
 31
0.0
  0
LINE
  5
1B1
330
7D
100
AcDbEntity
  8
1
  6
Continuous
 62
     6
100
AcDbLine
 10
-46.7030093972522
 20
28.3637732573348
 30
0.0
 11
46.44179512949958
 21
28.3637732573348
 31
0.0
  0
LINE
  5
1B2
330
7D
100
AcDbEntity
  8
1
  6
Continuous
 62
     7
100
AcDbLine
 10
-18.80300939725211
 20
19.86377325733471
 30
0.0
 11
-18.80300939725211
 21
28.3637732573348
 31
0.0
  0
LINE
  5
1B3
330
7D
100
AcDbEntity
  8
1
  6
PHANTOM
 62
     2
100
AcDbLine
 10
-67.61635451068952
 20
32.48877325733471
 30
0.0
 11
-73.11635451068952
 21
32.48877325733471
 31
0.0
  0
LINE
  5
1B4
330
7D
100
AcDbEntity
  8
1
  6
PHANTOM
 62
     2
100
AcDbLine
 10
-70.36635451068952
 20
35.23877325733471
 30
0.0
 11
-70.36635451068952
 21
29.73877325733471
 31
0.0
  0
LINE
  5
1B5
330
7D
100
AcDbEntity
  8
1
  6
DOT_CENTER
 62
     2
100
AcDbLine
 10
-79.11635451068952
 20
32.48877325733471
 30
0.0
 11
-73.61635451068952
 21
32.48877325733471
 31
0.0
  0
ARC
  5
1B6
102
{ACAD_REACTORS
330
22E
330
22F
102
}
330
7D
100
AcDbEntity
  8
0
  6
Continuous
 62
     2
100
AcDbCircle
 10
-70.73150837260252
 20
16.8714970740005
 30
0.0
 40
4.852596863498071
100
AcDbArc
 50
74.02000874164739
 51
84.84185523037506
  0
ARC
  5
1B7
102
{ACAD_REACTORS
330
22E
330
22F
102
}
330
7D
100
AcDbEntity
  8
0
  6
Continuous
 62
     2
100
AcDbCircle
 10
-70.1554677638488
 20
20.0272574298848
 30
0.0
 40
0.9059297849853228
100
AcDbArc
 50
71.55192388185348
 51
113.372277888129
  0
ARC
  5
1B8
102
{ACAD_REACTORS
330
22E
330
22F
102
}
330
7D
100
AcDbEntity
  8
0
  6
Continuous
 62
     2
100
AcDbCircle
 10
-70.31190779655083
 20
19.97910658991791
 30
0.0
 40
0.5115800601948051
100
AcDbArc
 50
208.5214732576959
 51
246.6277221118277
  0
ARC
  5
1B9
102
{ACAD_REACTORS
330
22E
330
22F
102
}
330
7D
100
AcDbEntity
  8
0
  6
Continuous
 62
     2
100
AcDbCircle
 10
-70.1554677638488
 20
20.3410986086279
 30
0.0
 40
0.905929784984916
100
AcDbArc
 50
246.6277221118709
 51
288.4480761181586
  0
ARC
  5
1BA
102
{ACAD_REACTORS
330
22E
330
22F
102
}
330
7D
100
AcDbEntity
  8
0
  6
Continuous
 62
     2
100
AcDbCircle
 10
-70.5736354975096
 20
21.59464438466509
 30
0.0
 40
2.22738400897274
100
AcDbArc
 50
288.4480761181328
 51
301.9309089499593
  0
ARC
  5
1BB
102
{ACAD_REACTORS
330
22A
330
22B
102
}
330
7D
100
AcDbEntity
  8
0
  6
Continuous
 62
     2
100
AcDbCircle
 10
-75.7987092301164
 20
22.3271464135791
 30
0.0
 40
0.911848150144459
100
AcDbArc
 50
295.3740086781764
 51
64.62599132180755
  0
ARC
  5
1BC
102
{ACAD_REACTORS
330
22A
330
22B
102
}
330
7D
100
AcDbEntity
  8
0
  6
Continuous
 62
     2
100
AcDbCircle
 10
-75.27266653202852
 20
24.0418233020537
 30
0.0
 40
0.3157169230760746
100
AcDbArc
 50
90.18896704254594
 51
180.0
  0
ARC
  5
1BD
102
{ACAD_REACTORS
330
22C
330
22D
102
}
330
7D
100
AcDbEntity
  8
0
  6
Continuous
 62
     2
100
AcDbCircle
 10
-54.06253631919421
 20
19.97129446821251
 30
0.0
 40
0.9545230068260899
100
AcDbArc
 50
90.0
 51
109.337143219432
  0
ARC
  5
1BE
102
{ACAD_REACTORS
330
22C
330
22D
102
}
330
7D
100
AcDbEntity
  8
0
  6
Continuous
 62
     2
100
AcDbCircle
 10
-53.83184905921652
 20
20.18417801925639
 30
0.0
 40
0.9410597353348958
100
AcDbArc
 50
151.478526742362
 51
208.5214732576695
  0
ARC
  5
1BF
102
{ACAD_REACTORS
330
22C
330
22D
102
}
330
7D
100
AcDbEntity
  8
0
  6
Continuous
 62
     2
100
AcDbCircle
 10
-54.05276628459481
 20
20.3410986086279
 30
0.0
 40
0.9059297849852797
100
AcDbArc
 50
246.6277221118177
 51
288.4480761180818
  0
ARC
  5
1C0
102
{ACAD_REACTORS
330
22C
330
22D
102
}
330
7D
100
AcDbEntity
  8
0
  6
Continuous
 62
     2
100
AcDbCircle
 10
-54.47093401825671
 20
21.59464438466449
 30
0.0
 40
2.227384008972746
100
AcDbArc
 50
288.4480761181335
 51
301.9309089499397
  0
ARC
  5
1C1
102
{ACAD_REACTORS
330
22C
330
22D
102
}
330
7D
100
AcDbEntity
  8
0
  6
Continuous
 62
     2
100
AcDbCircle
 10
-54.62880689334952
 20
23.4968589645128
 30
0.0
 40
4.852596863498825
100
AcDbArc
 50
275.1581447696364
 51
285.9799912583387
  0
ARC
  5
1C2
102
{ACAD_REACTORS
330
22C
330
22D
102
}
330
7D
100
AcDbEntity
  8
0
  6
Continuous
 62
     2
100
AcDbCircle
 10
-54.3399507986137
 20
20.29696838129121
 30
0.0
 40
1.639695123940449
100
AcDbArc
 50
195.0618917771013
 51
275.1581447696765
  0
ARC
  5
1C3
102
{ACAD_REACTORS
330
224
330
225
102
}
330
7D
100
AcDbEntity
  8
0
  6
Continuous
 62
     2
100
AcDbCircle
 10
-70.06816411030482
 20
24.01490761600292
 30
0.0
 40
1.055365641333708
100
AcDbArc
 50
270.0
 51
90.0
  0
ARC
  5
1C4
102
{ACAD_REACTORS
330
22A
330
22B
102
}
330
7D
100
AcDbEntity
  8
0
  6
Continuous
 62
     2
100
AcDbCircle
 10
-77.84821521856023
 20
19.6855457359847
 30
0.0
 40
0.3157169230756836
100
AcDbArc
 50
180.0
 51
270.0
  0
ARC
  5
1C5
102
{ACAD_REACTORS
330
22A
330
22B
102
}
330
7D
100
AcDbEntity
  8
0
  6
Continuous
 62
     2
100
AcDbCircle
 10
-76.3723819575506
 20
24.04200077870181
 30
0.0
 40
0.315716923076593
100
AcDbArc
 50
0.0
 51
90.0
  0
ARC
  5
1C6
102
{ACAD_REACTORS
330
22A
330
22B
102
}
330
7D
100
AcDbEntity
  8
0
  6
Continuous
 62
     2
100
AcDbCircle
 10
-76.3723819575506
 20
23.4379761596413
 30
0.0
 40
0.3157169230761203
100
AcDbArc
 50
295.1944106485397
 51
0.0
  0
ARC
  5
1C7
102
{ACAD_REACTORS
330
22A
330
22B
102
}
330
7D
100
AcDbEntity
  8
0
  6
Continuous
 62
     2
100
AcDbCircle
 10
-76.3723819575506
 20
19.6855457359847
 30
0.0
 40
0.3157169230766996
100
AcDbArc
 50
270.0
 51
0.0
  0
ARC
  5
1C8
102
{ACAD_REACTORS
330
22A
330
22B
102
}
330
7D
100
AcDbEntity
  8
0
  6
Continuous
 62
     2
100
AcDbCircle
 10
-78.44210989530671
 20
24.64602864193461
 30
0.0
 40
0.4242446153837989
100
AcDbArc
 50
90.0
 51
180.0
  0
ARC
  5
1C9
102
{ACAD_REACTORS
330
22A
330
22B
102
}
330
7D
100
AcDbEntity
  8
0
  6
Continuous
 62
     2
100
AcDbCircle
 10
-72.96879780458991
 20
24.64602864193461
 30
0.0
 40
0.4242446153838841
100
AcDbArc
 50
0.0
 51
90.0
  0
ARC
  5
1CA
102
{ACAD_REACTORS
330
22A
330
22B
102
}
330
7D
100
AcDbEntity
  8
0
  6
Continuous
 62
     2
100
AcDbCircle
 10
-72.96879780458991
 20
19.0815178727344
 30
0.0
 40
0.4242446153832873
100
AcDbArc
 50
270.0
 51
0.0
  0
ARC
  5
1CB
102
{ACAD_REACTORS
330
228
330
229
102
}
330
7D
100
AcDbEntity
  8
0
  6
Continuous
 62
     2
100
AcDbCircle
 10
-63.75041391749841
 20
23.54336849543071
 30
0.0
 40
0.7717997786796351
100
AcDbArc
 50
321.879580202844
 51
38.12041979715956
  0
ARC
  5
1CC
102
{ACAD_REACTORS
330
228
330
229
102
}
330
7D
100
AcDbEntity
  8
0
  6
Continuous
 62
     2
100
AcDbCircle
 10
-63.55067388115222
 20
23.38663731731029
 30
0.0
 40
0.5179085730134372
100
AcDbArc
 50
218.1204197971511
 51
321.8795802028562
  0
ARC
  5
1CD
102
{ACAD_REACTORS
330
226
330
227
102
}
330
7D
100
AcDbEntity
  8
0
  6
Continuous
 62
     2
100
AcDbCircle
 10
-67.23068147011242
 20
20.18417801925639
 30
0.0
 40
1.458034083652003
100
AcDbArc
 50
297.548148175701
 51
62.45185182429896
  0
ARC
  5
1CE
102
{ACAD_REACTORS
330
226
330
227
102
}
330
7D
100
AcDbEntity
  8
0
  6
Continuous
 62
     2
100
AcDbCircle
 10
-67.79256125377901
 20
20.18417801925639
 30
0.0
 40
1.45803408365149
100
AcDbArc
 50
117.5481481756624
 51
242.4518518243375
  0
ARC
  5
1CF
102
{ACAD_REACTORS
330
226
330
227
102
}
330
7D
100
AcDbEntity
  8
0
  6
Continuous
 62
     2
100
AcDbCircle
 10
-67.51162136194571
 20
19.6456030089536
 30
0.0
 40
2.065479772208564
100
AcDbArc
 50
62.45185182430632
 51
117.5481481756664
  0
ARC
  5
1D0
102
{ACAD_REACTORS
330
226
330
227
102
}
330
7D
100
AcDbEntity
  8
0
  6
Continuous
 62
     2
100
AcDbCircle
 10
-67.51162136194571
 20
20.7227530295597
 30
0.0
 40
2.065479772208515
100
AcDbArc
 50
242.4518518243403
 51
297.548148175687
  0
ARC
  5
1D1
102
{ACAD_REACTORS
330
228
330
229
102
}
330
7D
100
AcDbEntity
  8
0
  6
Continuous
 62
     2
100
AcDbCircle
 10
-63.35093384480592
 20
23.54336849543071
 30
0.0
 40
0.7717997786796724
100
AcDbArc
 50
141.8795802028404
 51
218.120419797156
  0
ARC
  5
1D2
102
{ACAD_REACTORS
330
228
330
229
102
}
330
7D
100
AcDbEntity
  8
0
  6
Continuous
 62
     2
100
AcDbCircle
 10
-63.55067388115222
 20
23.70009967355119
 30
0.0
 40
0.517908573013521
100
AcDbArc
 50
38.12041979714382
 51
141.8795802028489
  0
ARC
  5
1D3
102
{ACAD_REACTORS
330
22A
330
22B
102
}
330
7D
100
AcDbEntity
  8
0
  6
Continuous
 62
     2
100
AcDbCircle
 10
-78.44210989530671
 20
19.0815178727344
 30
0.0
 40
0.4242446153828041
100
AcDbArc
 50
180.0
 51
270.0
  0
ARC
  5
1D4
102
{ACAD_REACTORS
330
22A
330
22B
102
}
330
7D
100
AcDbEntity
  8
0
  6
Continuous
 62
     2
100
AcDbCircle
 10
-76.3723819575506
 20
21.21631666751631
 30
0.0
 40
0.315716923076593
100
AcDbArc
 50
0.0
 51
64.80558935146027
  0
ARC
  5
1D5
102
{ACAD_REACTORS
330
22A
330
22B
102
}
330
7D
100
AcDbEntity
  8
0
  6
Continuous
 62
     2
100
AcDbCircle
 10
-75.84979750997562
 20
22.3271464135791
 30
0.0
 40
0.9118975235576178
100
AcDbArc
 50
115.1944106485281
 51
244.8055893514878
  0
ARC
  5
1D6
102
{ACAD_REACTORS
330
22A
330
22B
102
}
330
7D
100
AcDbEntity
  8
0
  6
Continuous
 62
     2
100
AcDbCircle
 10
-77.84821521856023
 20
24.04200077870181
 30
0.0
 40
0.3157169230761916
100
AcDbArc
 50
90.0
 51
180.0
  0
ARC
  5
1D7
102
{ACAD_REACTORS
330
224
330
225
102
}
330
7D
100
AcDbEntity
  8
0
  6
Continuous
 62
     2
100
AcDbCircle
 10
-70.5096366365432
 20
24.05430358722541
 30
0.0
 40
0.3528638246711182
100
AcDbArc
 50
270.0
 51
90.0
  0
ARC
  5
1D8
102
{ACAD_REACTORS
330
228
330
229
102
}
330
7D
100
AcDbEntity
  8
0
  6
Continuous
 62
     2
100
AcDbCircle
 10
-63.76694589131742
 20
23.54336849543071
 30
0.0
 40
1.52690476190589
100
AcDbArc
 50
90.0
 51
270.0
  0
ARC
  5
1D9
102
{ACAD_REACTORS
330
22C
330
22D
102
}
330
7D
100
AcDbEntity
  8
0
  6
Continuous
 62
     2
100
AcDbCircle
 10
-54.3399507986137
 20
20.07138765722149
 30
0.0
 40
1.639695123940221
100
AcDbArc
 50
90.0
 51
164.9381082228947
  0
ARC
  5
1DA
102
{ACAD_REACTORS
330
22C
330
22D
102
}
330
7D
100
AcDbEntity
  8
0
  6
Continuous
 62
     2
100
AcDbCircle
 10
-54.75907864207531
 20
20.18417801925639
 30
0.0
 40
1.205656168393004
100
AcDbArc
 50
164.9381082229025
 51
195.0618917770958
  0
ARC
  5
1DB
102
{ACAD_REACTORS
330
22C
330
22D
102
}
330
7D
100
AcDbEntity
  8
0
  6
Continuous
 62
     2
100
AcDbCircle
 10
-54.20920631729791
 20
19.97910658991791
 30
0.0
 40
0.5115800601960266
100
AcDbArc
 50
208.5214732576876
 51
246.6277221118445
  0
ARC
  5
1DC
102
{ACAD_REACTORS
330
22C
330
22D
102
}
330
7D
100
AcDbEntity
  8
0
  6
Continuous
 62
     2
100
AcDbCircle
 10
-54.20920631729791
 20
20.38924944859539
 30
0.0
 40
0.511580060194421
100
AcDbArc
 50
109.337143219485
 51
151.4785267424218
  0
ARC
  5
1DD
102
{ACAD_REACTORS
330
22A
330
22B
102
}
330
7D
100
AcDbEntity
  8
0
  6
Continuous
 62
     2
100
AcDbCircle
 10
-75.27266653202852
 20
20.63615340691561
 30
0.0
 40
0.315716923076792
100
AcDbArc
 50
180.0
 51
269.8110329574542
  0
ARC
  5
1DE
102
{ACAD_REACTORS
330
22A
330
22B
102
}
330
7D
100
AcDbEntity
  8
0
  6
Continuous
 62
     2
100
AcDbCircle
 10
-75.2670503967185
 20
22.3389883544846
 30
0.0
 40
2.018561131933266
100
AcDbArc
 50
269.8110329575858
 51
90.18896704241416
  0
ARC
  5
1DF
102
{ACAD_REACTORS
330
22A
330
22B
102
}
330
7D
100
AcDbEntity
  8
0
  6
Continuous
 62
     2
100
AcDbCircle
 10
-75.27266653202852
 20
23.43628801354691
 30
0.0
 40
0.315716923076792
100
AcDbArc
 50
180.0
 51
244.6259913216475
  0
ARC
  5
1E0
102
{ACAD_REACTORS
330
22A
330
22B
102
}
330
7D
100
AcDbEntity
  8
0
  6
Continuous
 62
     2
100
AcDbCircle
 10
-75.27266653202852
 20
21.21800481361069
 30
0.0
 40
0.3157169230765328
100
AcDbArc
 50
115.3740086783519
 51
180.0
  0
ARC
  5
1E1
102
{ACAD_REACTORS
330
22E
330
22F
102
}
330
7D
100
AcDbEntity
  8
0
  6
Continuous
 62
     2
100
AcDbCircle
 10
-70.44265227786661
 20
20.07138765722149
 30
0.0
 40
1.639695123940517
100
AcDbArc
 50
84.8418552303624
 51
164.9381082228862
  0
ARC
  5
1E2
102
{ACAD_REACTORS
330
22E
330
22F
102
}
330
7D
100
AcDbEntity
  8
0
  6
Continuous
 62
     2
100
AcDbCircle
 10
-70.86178012132942
 20
20.18417801925639
 30
0.0
 40
1.205656168390946
100
AcDbArc
 50
164.9381082228761
 51
195.0618917770945
  0
ARC
  5
1E3
102
{ACAD_REACTORS
330
22E
330
22F
102
}
330
7D
100
AcDbEntity
  8
0
  6
Continuous
 62
     2
100
AcDbCircle
 10
-70.44265227786661
 20
20.29696838129121
 30
0.0
 40
1.639695123939387
100
AcDbArc
 50
195.0618917770896
 51
275.1581447696395
  0
ARC
  5
1E4
102
{ACAD_REACTORS
330
22E
330
22F
102
}
330
7D
100
AcDbEntity
  8
0
  6
Continuous
 62
     2
100
AcDbCircle
 10
-70.73150837260252
 20
23.4968589645128
 30
0.0
 40
4.852596863498145
100
AcDbArc
 50
275.1581447696249
 51
285.9799912583529
  0
ARC
  5
1E5
102
{ACAD_REACTORS
330
22E
330
22F
102
}
330
7D
100
AcDbEntity
  8
0
  6
Continuous
 62
     2
100
AcDbCircle
 10
-69.93455053847052
 20
20.18417801925639
 30
0.0
 40
0.9410597353332545
100
AcDbArc
 50
151.4785267422669
 51
208.5214732577054
  0
ARC
  5
1E6
102
{ACAD_REACTORS
330
22E
330
22F
102
}
330
7D
100
AcDbEntity
  8
0
  6
Continuous
 62
     2
100
AcDbCircle
 10
-70.31190779655083
 20
20.38924944859539
 30
0.0
 40
0.5115800601948779
100
AcDbArc
 50
113.3722778881992
 51
151.4785267423044
  0
ARC
  5
1E7
102
{ACAD_REACTORS
330
22E
330
22F
102
}
330
7D
100
AcDbEntity
  8
0
  6
Continuous
 62
     2
100
AcDbCircle
 10
-70.5736354975096
 20
18.77371165384821
 30
0.0
 40
2.227384008973474
100
AcDbArc
 50
58.06909105004068
 51
71.55192388186722
  0
ARC
  5
1E8
102
{ACAD_REACTORS
330
226
330
227
102
}
330
7D
100
AcDbEntity
  8
0
  6
Continuous
 62
     2
100
AcDbCircle
 10
-67.51162136194571
 20
20.3409091973769
 30
0.0
 40
0.5179085730133043
100
AcDbArc
 50
38.12041979714765
 51
141.8795802028582
  0
ARC
  5
1E9
102
{ACAD_REACTORS
330
226
330
227
102
}
330
7D
100
AcDbEntity
  8
0
  6
Continuous
 62
     2
100
AcDbCircle
 10
-67.31188132559961
 20
20.18417801925639
 30
0.0
 40
0.7717997786794676
100
AcDbArc
 50
141.8795802028359
 51
218.1204197971687
  0
ARC
  5
1EA
102
{ACAD_REACTORS
330
226
330
227
102
}
330
7D
100
AcDbEntity
  8
0
  6
Continuous
 62
     2
100
AcDbCircle
 10
-67.51162136194571
 20
20.0274468411364
 30
0.0
 40
0.5179085730137397
100
AcDbArc
 50
218.1204197971938
 51
321.8795802028004
  0
ARC
  5
1EB
102
{ACAD_REACTORS
330
226
330
227
102
}
330
7D
100
AcDbEntity
  8
0
  6
Continuous
 62
     2
100
AcDbCircle
 10
-67.71136139829213
 20
20.18417801925639
 30
0.0
 40
0.7717997786796947
100
AcDbArc
 50
321.8795802028417
 51
38.1204197971537
  0
CIRCLE
  5
1EC
330
7D
100
AcDbEntity
  8
1
  6
Continuous
 62
     2
100
AcDbCircle
 10
-70.36635451068952
 20
32.48877325733471
 30
0.0
 40
2.5
  0
CIRCLE
  5
1ED
330
7D
100
AcDbEntity
  8
1
  6
Continuous
 62
     2
100
AcDbCircle
 10
-70.36635451068952
 20
32.48877325733471
 30
0.0
 40
1.249999999999915
  0
CIRCLE
  5
1EE
102
{ACAD_REACTORS
330
22A
330
22B
102
}
330
7D
100
AcDbEntity
  8
0
  6
Continuous
 62
     2
100
AcDbCircle
 10
-75.82252424478921
 20
22.3271464135791
 30
0.0
 40
0.4709789327785074
  0
MTEXT
  5
1EF
330
7D
100
AcDbEntity
  8
1
 62
     3
100
AcDbMText
 10
-240.5531370844303
 20
198.1550814126336
 30
0.0
 40
1.8
 41
0.0
 71
     7
 72
     1
  3
Weitergabe sowie Vervielfältigung dieses Dokuments, Verwertung und \PMitteilung seines Inhalts sind verboten, soweit nicht ausdrücklich gestattet. \PZuwiderhandlungen verpflichten zu Schadenersatz. Alle Rechte für den Fall\Pder Patent-, Gebrauchsmus
  1
ter- oder Designeintragung vorbehalten.
  7
CONVERTER_11
 73
     1
 44
0.99639855942377
  0
MTEXT
  5
1F0
330
7D
100
AcDbEntity
  8
1
 62
     3
100
AcDbMText
 10
-57.70002724564222
 20
198.1550814126336
 30
0.0
 40
1.8
 41
0.0
 71
     7
 72
     1
  3
Transfer or duplication of this document as well as the utilisation or\Pcommunication of its content are not permitted unless express consent\Pis granted. Violations give rise to claims for damages. All rights reserved\Pin case of patent, utility mo
  1
del or design patent registrations.
  7
CONVERTER_11
 73
     1
 44
0.99639855942377
  0
TEXT
  5
1F1
330
7D
100
AcDbEntity
  8
1
 62
     2
100
AcDbText
 10
-63.90300939725231
 20
12.60475604234318
 30
0.0
 40
1.8
  1
of
 41
0.9
  7
CONVERTER_11
100
AcDbText
  0
TEXT
  5
1F2
330
7D
100
AcDbEntity
  8
1
 62
     2
100
AcDbText
 10
-82.10300939725212
 20
12.60475604234313
 30
0.0
 40
1.8
  1
page
 41
0.9
  7
CONVERTER_11
100
AcDbText
  0
TEXT
  5
1F3
330
7D
100
AcDbEntity
  8
1
 62
     2
100
AcDbText
 10
-73.45674442691012
 20
12.56452460353279
 30
0.0
 40
1.8
  1
1
 41
0.9
  7
CONVERTER_11
100
AcDbText
  0
TEXT
  5
1F4
330
7D
100
AcDbEntity
  8
1
 62
     2
100
AcDbText
 10
-58.66770058743862
 20
12.61377325733469
 30
0.0
 40
1.8
  1
1
 41
0.9
  7
CONVERTER_11
100
AcDbText
  0
MTEXT
  5
1F6
330
7D
100
AcDbEntity
  8
1
 62
     7
100
AcDbMText
 10
-0.13060713387662
 20
14.61377325733503
 30
0.0
 40
3.0
 41
0.0
 71
     5
 72
     1
  1
PLT-SEC-T3-120-P
  7
CONVERTER_12
 73
     1
 44
1.20048019207683
  0
MTEXT
  5
1F7
330
7D
100
AcDbEntity
  8
1
 62
     2
100
AcDbMText
 10
-45.7030093972522
 20
18.8637732573348
 30
0.0
 40
1.8
 41
0.0
 71
     1
 72
     1
  1
description
  7
CONVERTER_11
 73
     1
 44
1.20048019207683
  0
MTEXT
  5
1F8
330
7D
100
AcDbEntity
  8
1
 62
     3
100
AcDbMText
 10
-56.90300939725222
 20
32.4887732573348
 30
0.0
 40
2.5
 41
0.0
 71
     5
 72
     1
  1
DIN A4
  7
CONVERTER_11
 73
     1
 44
1.20048019207683
  0
MTEXT
  5
1F9
330
7D
100
AcDbEntity
  8
1
 62
     7
100
AcDbMText
 10
-243.0582048705012
 20
33.8637732573348
 30
0.0
 40
3.5
 41
0.0
 71
     5
 72
     1
  1
D
  7
CONVERTER_11
 73
     1
 44
1.20048019207683
  0
MTEXT
  5
1FA
330
7D
100
AcDbEntity
  8
1
 62
     7
100
AcDbMText
 10
-243.0582048705012
 20
86.3637732573348
 30
0.0
 40
3.5
 41
0.0
 71
     5
 72
     1
  1
C
  7
CONVERTER_11
 73
     1
 44
1.20048019207683
  0
MTEXT
  5
1FB
330
7D
100
AcDbEntity
  8
1
 62
     7
100
AcDbMText
 10
-243.0582048705012
 20
136.3637732573348
 30
0.0
 40
3.5
 41
0.0
 71
     5
 72
     1
  1
B
  7
CONVERTER_11
 73
     1
 44
1.20048019207683
  0
MTEXT
  5
1FC
330
7D
100
AcDbEntity
  8
1
 62
     7
100
AcDbMText
 10
-243.0582048705012
 20
188.8637732573348
 30
0.0
 40
3.5
 41
0.0
 71
     5
 72
     1
  1
A
  7
CONVERTER_11
 73
     1
 44
1.20048019207683
  0
MTEXT
  5
1FD
330
7D
100
AcDbEntity
  8
1
 62
     7
100
AcDbMText
 10
27.19179512949708
 20
8.86377325733469
 30
0.0
 40
3.5
 41
0.0
 71
     5
 72
     1
  1
6
  7
CONVERTER_11
 73
     1
 44
1.20048019207683
  0
MTEXT
  5
1FE
330
7D
100
AcDbEntity
  8
1
 62
     7
100
AcDbMText
 10
-22.05820487050212
 20
8.86377325733469
 30
0.0
 40
3.5
 41
0.0
 71
     5
 72
     1
  1
5
  7
CONVERTER_11
 73
     1
 44
1.20048019207683
  0
MTEXT
  5
1FF
330
7D
100
AcDbEntity
  8
1
 62
     7
100
AcDbMText
 10
-72.05820487050221
 20
8.86377325733469
 30
0.0
 40
3.5
 41
0.0
 71
     5
 72
     1
  1
4
  7
CONVERTER_11
 73
     1
 44
1.20048019207683
  0
MTEXT
  5
200
330
7D
100
AcDbEntity
  8
1
 62
     7
100
AcDbMText
 10
-122.0582048705021
 20
8.86377325733469
 30
0.0
 40
3.5
 41
0.0
 71
     5
 72
     1
  1
3
  7
CONVERTER_11
 73
     1
 44
1.20048019207683
  0
MTEXT
  5
201
330
7D
100
AcDbEntity
  8
1
 62
     7
100
AcDbMText
 10
-172.0582048705021
 20
8.86377325733469
 30
0.0
 40
3.5
 41
0.0
 71
     5
 72
     1
  1
2
  7
CONVERTER_11
 73
     1
 44
1.20048019207683
  0
MTEXT
  5
202
330
7D
100
AcDbEntity
  8
1
 62
     7
100
AcDbMText
 10
-221.3082048705017
 20
8.86377325733469
 30
0.0
 40
3.5
 41
0.0
 71
     5
 72
     1
  1
1
  7
CONVERTER_11
 73
     1
 44
1.20048019207683
  0
MTEXT
  5
203
330
7D
100
AcDbEntity
  8
1
 62
     7
100
AcDbMText
 10
48.94179512949688
 20
33.8637732573348
 30
0.0
 40
3.5
 41
0.0
 71
     5
 72
     1
  1
D
  7
CONVERTER_11
 73
     1
 44
1.20048019207683
  0
MTEXT
  5
204
330
7D
100
AcDbEntity
  8
1
 62
     7
100
AcDbMText
 10
48.94179512949688
 20
136.3637732573367
 30
0.0
 40
3.5
 41
0.0
 71
     5
 72
     1
  1
B
  7
CONVERTER_11
 73
     1
 44
1.20048019207683
  0
MTEXT
  5
205
330
7D
100
AcDbEntity
  8
1
 62
     7
100
AcDbMText
 10
48.94179512949688
 20
188.8637732573348
 30
0.0
 40
3.5
 41
0.0
 71
     5
 72
     1
  1
A
  7
CONVERTER_11
 73
     1
 44
1.20048019207683
  0
MTEXT
  5
206
330
7D
100
AcDbEntity
  8
1
 62
     7
100
AcDbMText
 10
48.94179512949688
 20
86.3637732573367
 30
0.0
 40
3.5
 41
0.0
 71
     5
 72
     1
  1
C
  7
CONVERTER_11
 73
     1
 44
1.20048019207683
  0
MTEXT
  5
207
330
7D
100
AcDbEntity
  8
1
 62
     2
100
AcDbMText
 10
-117.5410241222996
 20
24.11377325733471
 30
0.0
 40
2.0
 41
0.0
 71
     5
 72
     1
  1
General Information\P- Simplified representation\P- Document excluded from change process\P- Linear dimensions [mm]
  7
CONVERTER_11
 73
     1
 44
1.20048019207683
  0
TEXT
  5
208
330
7D
100
AcDbEntity
  8
1
 62
     7
100
AcDbText
 10
-45.2030093972524
 20
21.1637732573347
 30
0.0
 40
2.5
  1
2905234
 41
0.81
  7
CONVERTER_12
100
AcDbText
  0
MTEXT
  5
209
330
7D
100
AcDbEntity
  8
1
 62
     2
100
AcDbMText
 10
-45.60300939725212
 20
27.3637732573348
 30
0.0
 40
1.8
 41
0.0
 71
     1
 72
     1
  1
ident.-No.
  7
CONVERTER_11
 73
     1
 44
1.20048019207683
  0
MTEXT
  5
20A
330
7D
100
AcDbEntity
  8
1
 62
     2
100
AcDbMText
 10
38.6233868478206
 20
35.8637732573348
 30
0.0
 40
1.8
 41
0.0
 71
     1
 72
     1
  1
scale
  7
CONVERTER_11
 73
     1
 44
1.20048019207683
  0
MTEXT
  5
20C
330
7D
100
AcDbEntity
  8
1
 62
     3
100
AcDbMText
 10
41.98259098866019
 20
29.6637732573349
 30
0.0
 40
2.5
 41
0.0
 71
     8
 72
     1
  1
1:1
  7
CONVERTER_13
 73
     1
 44
1.32052821128451
  0
TEXT
  5
20D
330
7D
100
AcDbEntity
  8
1
 62
     7
100
AcDbText
 10
-45.60300939725212
 20
29.6637732573347
 30
0.0
 40
2.5
  1
83161346
 41
0.81
  7
CONVERTER_12
100
AcDbText
  0
MTEXT
  5
20F
330
7D
100
AcDbEntity
  8
1
 62
     2
100
AcDbMText
 10
-45.60300939725212
 20
35.8637732573348
 30
0.0
 40
1.8
 41
0.0
 71
     1
 72
     1
  1
document-No. / RI
  7
CONVERTER_14
 73
     1
 44
1.32052821128451
  0
TEXT
  5
210
330
7D
100
AcDbEntity
  8
1
 62
     3
100
AcDbText
 10
-17.80300939725211
 20
21.1637732573347
 30
0.0
 40
2.5
  1
TECDOC 2D_Productdrawing
 41
0.81
  7
CONVERTER_12
100
AcDbText
  0
MTEXT
  5
211
330
7D
100
AcDbEntity
  8
1
 62
     2
100
AcDbMText
 10
-17.80300939725211
 20
27.36377325733471
 30
0.0
 40
1.8
 41
0.0
 71
     1
 72
     1
  1
document-type
  7
CONVERTER_11
 73
     1
 44
1.20048019207683
  0
MTEXT
  5
212
330
7D
100
AcDbEntity
  8
1
 62
     2
100
AcDbMText
 10
12.02338684782077
 20
35.86377325733471
 30
0.0
 40
1.8
 41
0.0
 71
     1
 72
     1
  1
date
  7
CONVERTER_11
 73
     1
 44
1.32052821128451
  0
TEXT
  5
213
330
7D
100
AcDbEntity
  8
1
 62
     3
100
AcDbText
 10
12.02338684782077
 20
29.6637732573347
 30
0.0
 40
2.5
  1
05.12.2017
 41
0.81
  7
CONVERTER_12
100
AcDbText
  0
TEXT
  5
214
330
7D
100
AcDbEntity
  8
1
 62
     7
100
AcDbText
 10
-25.57309717819632
 20
29.6637732573347
 30
0.0
 40
2.5
  1
01
 41
0.81
  7
CONVERTER_12
100
AcDbText
  0
TEXT
  5
215
330
7D
100
AcDbEntity
  8
1
 62
     7
100
AcDbText
 10
-27.72946167523833
 20
29.6637732573347
 30
0.0
 40
2.5
  1
/
 41
0.9
  7
CONVERTER_11
100
AcDbText
  0
HATCH
  5
216
330
7D
100
AcDbEntity
  8
1
  6
Continuous
 62
     2
100
AcDbHatch
 10
0.0
 20
0.0
 30
0.0
210
0.0
220
0.0
230
1.0
  2
_USER
 70
     0
 71
     1
 91
        1
 92
        1
 93
       12
 72
     1
 10
-65.43550868429102
 20
22.0164637335254
 11
-66.62830138645742
 21
22.0164637335254
 72
     1
 10
-66.62830138645742
 20
22.0164637335254
 11
-66.62830138645742
 21
23.15073584236922
 72
     1
 10
-66.62830138645742
 20
23.15073584236922
 11
-67.6779589643649
 21
23.15073584236922
 72
     1
 10
-67.6779589643649
 20
23.15073584236922
 11
-67.6779589643649
 21
22.0164637335254
 72
     1
 10
-67.6779589643649
 20
22.0164637335254
 11
-68.8707516665315
 21
22.0164637335254
 72
     1
 10
-68.8707516665315
 20
22.0164637335254
 11
-68.8707516665315
 21
25.0702732573366
 72
     1
 10
-68.8707516665315
 20
25.0702732573366
 11
-67.6779589643649
 21
25.0702732573366
 72
     1
 10
-67.6779589643649
 20
25.0702732573366
 11
-67.6779589643649
 21
24.001439924002
 72
     1
 10
-67.6779589643649
 20
24.001439924002
 11
-66.62830138645742
 21
24.001439924002
 72
     1
 10
-66.62830138645742
 20
24.001439924002
 11
-66.62830138645742
 21
25.0702732573366
 72
     1
 10
-66.62830138645742
 20
25.0702732573366
 11
-65.43550868429102
 21
25.0702732573366
 72
     1
 10
-65.43550868429102
 20
25.0702732573366
 11
-65.43550868429102
 21
22.0164637335254
 97
       12
330
183
330
184
330
16E
330
16D
330
16C
330
180
330
16B
330
181
330
182
330
16A
330
169
330
168
 75
     1
 76
     0
 52
45.0
 41
0.1
 77
     0
 78
     1
 53
45.0
 43
0.0
 44
0.0
 45
-0.0707106781186548
 46
0.0707106781186548
 79
     0
 98
        1
 10
0.0
 20
0.0
  0
HATCH
  5
217
330
7D
100
AcDbEntity
  8
1
  6
Continuous
 62
     2
100
AcDbHatch
 10
0.0
 20
0.0
 30
0.0
210
0.0
220
0.0
230
1.0
  2
_USER
 70
     0
 71
     1
 91
        1
 92
        1
 93
       12
 72
     1
 10
-65.43550868429102
 20
22.0164637335254
 11
-66.62830138645742
 21
22.0164637335254
 72
     1
 10
-66.62830138645742
 20
22.0164637335254
 11
-66.62830138645742
 21
23.15073584236922
 72
     1
 10
-66.62830138645742
 20
23.15073584236922
 11
-67.6779589643649
 21
23.15073584236922
 72
     1
 10
-67.6779589643649
 20
23.15073584236922
 11
-67.6779589643649
 21
22.0164637335254
 72
     1
 10
-67.6779589643649
 20
22.0164637335254
 11
-68.8707516665315
 21
22.0164637335254
 72
     1
 10
-68.8707516665315
 20
22.0164637335254
 11
-68.8707516665315
 21
25.0702732573366
 72
     1
 10
-68.8707516665315
 20
25.0702732573366
 11
-67.6779589643649
 21
25.0702732573366
 72
     1
 10
-67.6779589643649
 20
25.0702732573366
 11
-67.6779589643649
 21
24.001439924002
 72
     1
 10
-67.6779589643649
 20
24.001439924002
 11
-66.62830138645742
 21
24.001439924002
 72
     1
 10
-66.62830138645742
 20
24.001439924002
 11
-66.62830138645742
 21
25.0702732573366
 72
     1
 10
-66.62830138645742
 20
25.0702732573366
 11
-65.43550868429102
 21
25.0702732573366
 72
     1
 10
-65.43550868429102
 20
25.0702732573366
 11
-65.43550868429102
 21
22.0164637335254
 97
       12
330
183
330
184
330
16E
330
16D
330
16C
330
180
330
16B
330
181
330
182
330
16A
330
169
330
168
 75
     1
 76
     0
 52
45.0
 41
0.1
 77
     0
 78
     1
 53
45.0
 43
0.0
 44
0.0
 45
-0.0707106781186548
 46
0.0707106781186548
 79
     0
 98
        1
 10
0.0
 20
0.0
  0
HATCH
  5
218
330
7D
100
AcDbEntity
  8
1
  6
Continuous
 62
     2
100
AcDbHatch
 10
0.0
 20
0.0
 30
0.0
210
0.0
220
0.0
230
1.0
  2
_USER
 70
     0
 71
     1
 91
        1
 92
        1
 93
       10
 72
     1
 10
-63.19320933510272
 20
20.4023072709571
 11
-64.43371374535562
 21
21.71108278116219
 72
     1
 10
-64.43371374535562
 20
21.71108278116219
 11
-65.62650644752321
 21
21.71108278116219
 72
     1
 10
-65.62650644752321
 20
21.71108278116219
 11
-65.62650644752321
 21
18.65727325735111
 72
     1
 10
-65.62650644752321
 20
18.65727325735111
 11
-64.43371374535562
 21
18.65727325735111
 72
     1
 10
-64.43371374535562
 20
18.65727325735111
 11
-64.43371374535562
 21
19.96604876755569
 72
     1
 10
-64.43371374535562
 20
19.96604876755569
 11
-63.19320933510272
 21
18.65727325735111
 72
     1
 10
-63.19320933510272
 20
18.65727325735111
 11
-62.00041663293632
 21
18.65727325735111
 72
     1
 10
-62.00041663293632
 20
18.65727325735111
 11
-62.00041663293632
 21
21.71108278116219
 72
     1
 10
-62.00041663293632
 20
21.71108278116219
 11
-63.19320933510272
 21
21.71108278116219
 72
     1
 10
-63.19320933510272
 20
21.71108278116219
 11
-63.19320933510272
 21
20.4023072709571
 97
       10
330
191
330
161
330
160
330
163
330
18C
330
18D
330
162
330
18E
330
18F
330
190
 75
     1
 76
     0
 52
45.0
 41
0.1
 77
     0
 78
     1
 53
45.0
 43
0.0
 44
0.0
 45
-0.0707106781186548
 46
0.0707106781186548
 79
     0
 98
        1
 10
0.0
 20
0.0
  0
HATCH
  5
219
330
7D
100
AcDbEntity
  8
1
  6
Continuous
 62
     2
100
AcDbHatch
 10
0.0
 20
0.0
 30
0.0
210
0.0
220
0.0
230
1.0
  2
_USER
 70
     0
 71
     1
 91
        1
 92
        1
 93
       10
 72
     1
 10
-63.19320933510272
 20
20.4023072709571
 11
-64.43371374535562
 21
21.71108278116219
 72
     1
 10
-64.43371374535562
 20
21.71108278116219
 11
-65.62650644752321
 21
21.71108278116219
 72
     1
 10
-65.62650644752321
 20
21.71108278116219
 11
-65.62650644752321
 21
18.65727325735111
 72
     1
 10
-65.62650644752321
 20
18.65727325735111
 11
-64.43371374535562
 21
18.65727325735111
 72
     1
 10
-64.43371374535562
 20
18.65727325735111
 11
-64.43371374535562
 21
19.96604876755569
 72
     1
 10
-64.43371374535562
 20
19.96604876755569
 11
-63.19320933510272
 21
18.65727325735111
 72
     1
 10
-63.19320933510272
 20
18.65727325735111
 11
-62.00041663293632
 21
18.65727325735111
 72
     1
 10
-62.00041663293632
 20
18.65727325735111
 11
-62.00041663293632
 21
21.71108278116219
 72
     1
 10
-62.00041663293632
 20
21.71108278116219
 11
-63.19320933510272
 21
21.71108278116219
 72
     1
 10
-63.19320933510272
 20
21.71108278116219
 11
-63.19320933510272
 21
20.4023072709571
 97
       10
330
191
330
161
330
160
330
163
330
18C
330
18D
330
162
330
18E
330
18F
330
190
 75
     1
 76
     0
 52
45.0
 41
0.1
 77
     0
 78
     1
 53
45.0
 43
0.0
 44
0.0
 45
-0.0707106781186548
 46
0.0707106781186548
 79
     0
 98
        1
 10
0.0
 20
0.0
  0
HATCH
  5
21A
330
7D
100
AcDbEntity
  8
1
  6
Continuous
 62
     2
100
AcDbHatch
 10
0.0
 20
0.0
 30
0.0
210
0.0
220
0.0
230
1.0
  2
_USER
 70
     0
 71
     1
 91
        1
 92
        1
 93
       10
 72
     1
 10
-57.944770514683
 20
23.76149774713142
 11
-59.18527492493701
 21
25.0702732573366
 72
     1
 10
-59.18527492493701
 20
25.0702732573366
 11
-60.37806762710352
 21
25.0702732573366
 72
     1
 10
-60.37806762710352
 20
25.0702732573366
 11
-60.37806762710352
 21
22.0164637335254
 72
     1
 10
-60.37806762710352
 20
22.0164637335254
 11
-59.18527492493701
 21
22.0164637335254
 72
     1
 10
-59.18527492493701
 20
22.0164637335254
 11
-59.18527492493701
 21
23.3252392437301
 72
     1
 10
-59.18527492493701
 20
23.3252392437301
 11
-57.944770514683
 21
22.0164637335254
 72
     1
 10
-57.944770514683
 20
22.0164637335254
 11
-56.7519778125164
 21
22.0164637335254
 72
     1
 10
-56.7519778125164
 20
22.0164637335254
 11
-56.7519778125164
 21
25.0702732573366
 72
     1
 10
-56.7519778125164
 20
25.0702732573366
 11
-57.944770514683
 21
25.0702732573366
 72
     1
 10
-57.944770514683
 20
25.0702732573366
 11
-57.944770514683
 21
23.76149774713142
 97
       10
330
196
330
15E
330
15D
330
197
330
15C
330
192
330
193
330
194
330
195
330
15F
 75
     1
 76
     0
 52
45.0
 41
0.1
 77
     0
 78
     1
 53
45.0
 43
0.0
 44
0.0
 45
-0.0707106781186548
 46
0.0707106781186548
 79
     0
 98
        1
 10
0.0
 20
0.0
  0
HATCH
  5
21B
330
7D
100
AcDbEntity
  8
1
  6
Continuous
 62
     2
100
AcDbHatch
 10
0.0
 20
0.0
 30
0.0
210
0.0
220
0.0
230
1.0
  2
_USER
 70
     0
 71
     1
 91
        1
 92
        1
 93
       10
 72
     1
 10
-57.944770514683
 20
23.76149774713142
 11
-59.18527492493701
 21
25.0702732573366
 72
     1
 10
-59.18527492493701
 20
25.0702732573366
 11
-60.37806762710352
 21
25.0702732573366
 72
     1
 10
-60.37806762710352
 20
25.0702732573366
 11
-60.37806762710352
 21
22.0164637335254
 72
     1
 10
-60.37806762710352
 20
22.0164637335254
 11
-59.18527492493701
 21
22.0164637335254
 72
     1
 10
-59.18527492493701
 20
22.0164637335254
 11
-59.18527492493701
 21
23.3252392437301
 72
     1
 10
-59.18527492493701
 20
23.3252392437301
 11
-57.944770514683
 21
22.0164637335254
 72
     1
 10
-57.944770514683
 20
22.0164637335254
 11
-56.7519778125164
 21
22.0164637335254
 72
     1
 10
-56.7519778125164
 20
22.0164637335254
 11
-56.7519778125164
 21
25.0702732573366
 72
     1
 10
-56.7519778125164
 20
25.0702732573366
 11
-57.944770514683
 21
25.0702732573366
 72
     1
 10
-57.944770514683
 20
25.0702732573366
 11
-57.944770514683
 21
23.76149774713142
 97
       10
330
196
330
15E
330
15D
330
197
330
15C
330
192
330
193
330
194
330
195
330
15F
 75
     1
 76
     0
 52
45.0
 41
0.1
 77
     0
 78
     1
 53
45.0
 43
0.0
 44
0.0
 45
-0.0707106781186548
 46
0.0707106781186548
 79
     0
 98
        1
 10
0.0
 20
0.0
  0
HATCH
  5
21C
330
7D
100
AcDbEntity
  8
1
  6
Continuous
 62
     2
100
AcDbHatch
 10
0.0
 20
0.0
 30
0.0
210
0.0
220
0.0
230
1.0
  2
_USER
 70
     0
 71
     1
 91
        1
 92
        1
 93
        8
 72
     1
 10
-59.0422907315625
 20
21.71108278116219
 11
-61.85728150867612
 21
21.71108278116219
 72
     1
 10
-61.85728150867612
 20
21.71108278116219
 11
-61.85728150867612
 21
20.9258174750386
 72
     1
 10
-61.85728150867612
 20
20.9258174750386
 11
-61.04618247120152
 21
20.9258174750386
 72
     1
 10
-61.04618247120152
 20
20.9258174750386
 11
-61.04618247120152
 21
18.65727325735111
 72
     1
 10
-61.04618247120152
 20
18.65727325735111
 11
-59.85338976903501
 21
18.65727325735111
 72
     1
 10
-59.85338976903501
 20
18.65727325735111
 11
-59.85338976903501
 21
20.9258174750386
 72
     1
 10
-59.85338976903501
 20
20.9258174750386
 11
-59.0422907315625
 21
20.9258174750386
 72
     1
 10
-59.0422907315625
 20
20.9258174750386
 11
-59.0422907315625
 21
21.71108278116219
 97
        8
330
158
330
198
330
157
330
199
330
19A
330
15B
330
15A
330
159
 75
     1
 76
     0
 52
45.0
 41
0.1
 77
     0
 78
     1
 53
45.0
 43
0.0
 44
0.0
 45
-0.0707106781186548
 46
0.0707106781186548
 79
     0
 98
        1
 10
0.0
 20
0.0
  0
HATCH
  5
21D
330
7D
100
AcDbEntity
  8
1
  6
Continuous
 62
     2
100
AcDbHatch
 10
0.0
 20
0.0
 30
0.0
210
0.0
220
0.0
230
1.0
  2
_USER
 70
     0
 71
     1
 91
        1
 92
        1
 93
        8
 72
     1
 10
-59.0422907315625
 20
21.71108278116219
 11
-61.85728150867612
 21
21.71108278116219
 72
     1
 10
-61.85728150867612
 20
21.71108278116219
 11
-61.85728150867612
 21
20.9258174750386
 72
     1
 10
-61.85728150867612
 20
20.9258174750386
 11
-61.04618247120152
 21
20.9258174750386
 72
     1
 10
-61.04618247120152
 20
20.9258174750386
 11
-61.04618247120152
 21
18.65727325735111
 72
     1
 10
-61.04618247120152
 20
18.65727325735111
 11
-59.85338976903501
 21
18.65727325735111
 72
     1
 10
-59.85338976903501
 20
18.65727325735111
 11
-59.85338976903501
 21
20.9258174750386
 72
     1
 10
-59.85338976903501
 20
20.9258174750386
 11
-59.0422907315625
 21
20.9258174750386
 72
     1
 10
-59.0422907315625
 20
20.9258174750386
 11
-59.0422907315625
 21
21.71108278116219
 97
        8
330
158
330
198
330
157
330
199
330
19A
330
15B
330
15A
330
159
 75
     1
 76
     0
 52
45.0
 41
0.1
 77
     0
 78
     1
 53
45.0
 43
0.0
 44
0.0
 45
-0.0707106781186548
 46
0.0707106781186548
 79
     0
 98
        1
 10
0.0
 20
0.0
  0
HATCH
  5
21E
330
7D
100
AcDbEntity
  8
1
  6
Continuous
 62
     2
100
AcDbHatch
 10
0.0
 20
0.0
 30
0.0
210
0.0
220
0.0
230
1.0
  2
_USER
 70
     0
 71
     1
 91
        2
 92
        1
 93
        8
 72
     1
 10
-56.90386327561552
 20
18.65727325735111
 11
-57.1153433290913
 21
19.19823380156899
 72
     1
 10
-57.1153433290913
 20
19.19823380156899
 11
-58.24778490576512
 21
19.19823380156899
 72
     1
 10
-58.24778490576512
 20
19.19823380156899
 11
-58.45926495924093
 21
18.65727325735111
 72
     1
 10
-58.45926495924093
 20
18.65727325735111
 11
-59.69976936949391
 21
18.65727325735111
 72
     1
 10
-59.69976936949391
 20
18.65727325735111
 11
-58.3018163225546
 21
21.71108278116219
 72
     1
 10
-58.3018163225546
 20
21.71108278116219
 11
-57.0613119123019
 21
21.71108278116219
 72
     1
 10
-57.0613119123019
 20
21.71108278116219
 11
-55.6633588653616
 21
18.65727325735111
 72
     1
 10
-55.6633588653616
 20
18.65727325735111
 11
-56.90386327561552
 21
18.65727325735111
 97
        8
330
19C
330
19D
330
154
330
19E
330
153
330
156
330
19B
330
155
 92
       16
 93
        3
 72
     1
 10
-57.98172935462011
 20
19.87879706687559
 11
-57.68156411742771
 21
20.64661203286229
 72
     1
 10
-57.68156411742771
 20
20.64661203286229
 11
-57.38139888023761
 21
19.87879706687559
 72
     1
 10
-57.38139888023761
 20
19.87879706687559
 11
-57.98172935462011
 21
19.87879706687559
 97
        3
330
152
330
1A0
330
19F
 75
     1
 76
     0
 52
45.0
 41
0.1
 77
     0
 78
     1
 53
45.0
 43
0.0
 44
0.0
 45
-0.0707106781186548
 46
0.0707106781186548
 79
     0
 98
        1
 10
0.0
 20
0.0
  0
HATCH
  5
21F
330
7D
100
AcDbEntity
  8
1
  6
Continuous
 62
     2
100
AcDbHatch
 10
0.0
 20
0.0
 30
0.0
210
0.0
220
0.0
230
1.0
  2
_USER
 70
     0
 71
     1
 91
        2
 92
        1
 93
        8
 72
     1
 10
-56.90386327561552
 20
18.65727325735111
 11
-57.1153433290913
 21
19.19823380156899
 72
     1
 10
-57.1153433290913
 20
19.19823380156899
 11
-58.24778490576512
 21
19.19823380156899
 72
     1
 10
-58.24778490576512
 20
19.19823380156899
 11
-58.45926495924093
 21
18.65727325735111
 72
     1
 10
-58.45926495924093
 20
18.65727325735111
 11
-59.69976936949391
 21
18.65727325735111
 72
     1
 10
-59.69976936949391
 20
18.65727325735111
 11
-58.3018163225546
 21
21.71108278116219
 72
     1
 10
-58.3018163225546
 20
21.71108278116219
 11
-57.0613119123019
 21
21.71108278116219
 72
     1
 10
-57.0613119123019
 20
21.71108278116219
 11
-55.6633588653616
 21
18.65727325735111
 72
     1
 10
-55.6633588653616
 20
18.65727325735111
 11
-56.90386327561552
 21
18.65727325735111
 97
        8
330
19C
330
19D
330
154
330
19E
330
153
330
156
330
19B
330
155
 92
       16
 93
        3
 72
     1
 10
-57.98172935462011
 20
19.87879706687559
 11
-57.68156411742771
 21
20.64661203286229
 72
     1
 10
-57.68156411742771
 20
20.64661203286229
 11
-57.38139888023761
 21
19.87879706687559
 72
     1
 10
-57.38139888023761
 20
19.87879706687559
 11
-57.98172935462011
 21
19.87879706687559
 97
        3
330
152
330
1A0
330
19F
 75
     1
 76
     0
 52
45.0
 41
0.1
 77
     0
 78
     1
 53
45.0
 43
0.0
 44
0.0
 45
-0.0707106781186548
 46
0.0707106781186548
 79
     0
 98
        1
 10
0.0
 20
0.0
  0
HATCH
  5
220
330
7D
100
AcDbEntity
  8
1
  6
Continuous
 62
     2
100
AcDbHatch
 10
0.0
 20
0.0
 30
0.0
210
0.0
220
0.0
230
1.0
  2
_USER
 70
     0
 71
     1
 91
        1
 92
        1
 93
        4
 72
     1
 10
-55.27291486182961
 20
22.0164637335254
 11
-56.5134192720825
 21
22.0164637335254
 72
     1
 10
-56.5134192720825
 20
22.0164637335254
 11
-56.5134192720825
 21
25.0702732573366
 72
     1
 10
-56.5134192720825
 20
25.0702732573366
 11
-55.27291486182961
 21
25.0702732573366
 72
     1
 10
-55.27291486182961
 20
25.0702732573366
 11
-55.27291486182961
 21
22.0164637335254
 97
        4
330
14F
330
151
330
1A1
330
150
 75
     1
 76
     0
 52
45.0
 41
0.1
 77
     0
 78
     1
 53
45.0
 43
0.0
 44
0.0
 45
-0.0707106781186548
 46
0.0707106781186548
 79
     0
 98
        1
 10
0.0
 20
0.0
  0
HATCH
  5
221
330
7D
100
AcDbEntity
  8
1
  6
Continuous
 62
     2
100
AcDbHatch
 10
0.0
 20
0.0
 30
0.0
210
0.0
220
0.0
230
1.0
  2
_USER
 70
     0
 71
     1
 91
        1
 92
        1
 93
        4
 72
     1
 10
-55.27291486182961
 20
22.0164637335254
 11
-56.5134192720825
 21
22.0164637335254
 72
     1
 10
-56.5134192720825
 20
22.0164637335254
 11
-56.5134192720825
 21
25.0702732573366
 72
     1
 10
-56.5134192720825
 20
25.0702732573366
 11
-55.27291486182961
 21
25.0702732573366
 72
     1
 10
-55.27291486182961
 20
25.0702732573366
 11
-55.27291486182961
 21
22.0164637335254
 97
        4
330
14F
330
151
330
1A1
330
150
 75
     1
 76
     0
 52
45.0
 41
0.1
 77
     0
 78
     1
 53
45.0
 43
0.0
 44
0.0
 45
-0.0707106781186548
 46
0.0707106781186548
 79
     0
 98
        1
 10
0.0
 20
0.0
  0
HATCH
  5
222
330
7D
100
AcDbEntity
  8
1
  6
Continuous
 62
     2
100
AcDbHatch
 10
0.0
 20
0.0
 30
0.0
210
0.0
220
0.0
230
1.0
  2
_USER
 70
     0
 71
     1
 91
        1
 92
        1
 93
       12
 72
     1
 10
-51.0504286961588
 20
25.0702732573366
 11
-52.35295832692532
 21
23.59732272730039
 72
     1
 10
-52.35295832692532
 20
23.59732272730039
 11
-50.95500527998502
 21
22.0164637335254
 72
     1
 10
-50.95500527998502
 20
22.0164637335254
 11
-52.35772949773332
 21
22.0164637335254
 72
     1
 10
-52.35772949773332
 20
22.0164637335254
 11
-53.05432043579882
 21
22.80419551881911
 72
     1
 10
-53.05432043579882
 20
22.80419551881911
 11
-53.75091137386451
 21
22.0164637335254
 72
     1
 10
-53.75091137386451
 20
22.0164637335254
 11
-55.15363559161273
 21
22.0164637335254
 72
     1
 10
-55.15363559161273
 20
22.0164637335254
 11
-53.75568254467243
 21
23.59732272730039
 72
     1
 10
-53.75568254467243
 20
23.59732272730039
 11
-55.05821217543991
 21
25.0702732573366
 72
     1
 10
-55.05821217543991
 20
25.0702732573366
 11
-53.65548795769061
 21
25.0702732573366
 72
     1
 10
-53.65548795769061
 20
25.0702732573366
 11
-53.05432043579882
 21
24.39044993578111
 72
     1
 10
-53.05432043579882
 20
24.39044993578111
 11
-52.45315291390602
 21
25.0702732573366
 72
     1
 10
-52.45315291390602
 20
25.0702732573366
 11
-51.0504286961588
 21
25.0702732573366
 97
       12
330
14A
330
149
330
148
330
1A5
330
1A6
330
1A2
330
1A3
330
14E
330
14D
330
14C
330
14B
330
1A4
 75
     1
 76
     0
 52
45.0
 41
0.1
 77
     0
 78
     1
 53
45.0
 43
0.0
 44
0.0
 45
-0.0707106781186548
 46
0.0707106781186548
 79
     0
 98
        1
 10
0.0
 20
0.0
  0
HATCH
  5
223
330
7D
100
AcDbEntity
  8
1
  6
Continuous
 62
     2
100
AcDbHatch
 10
0.0
 20
0.0
 30
0.0
210
0.0
220
0.0
230
1.0
  2
_USER
 70
     0
 71
     1
 91
        1
 92
        1
 93
       12
 72
     1
 10
-51.0504286961588
 20
25.0702732573366
 11
-52.35295832692532
 21
23.59732272730039
 72
     1
 10
-52.35295832692532
 20
23.59732272730039
 11
-50.95500527998502
 21
22.0164637335254
 72
     1
 10
-50.95500527998502
 20
22.0164637335254
 11
-52.35772949773332
 21
22.0164637335254
 72
     1
 10
-52.35772949773332
 20
22.0164637335254
 11
-53.05432043579882
 21
22.80419551881911
 72
     1
 10
-53.05432043579882
 20
22.80419551881911
 11
-53.75091137386451
 21
22.0164637335254
 72
     1
 10
-53.75091137386451
 20
22.0164637335254
 11
-55.15363559161273
 21
22.0164637335254
 72
     1
 10
-55.15363559161273
 20
22.0164637335254
 11
-53.75568254467243
 21
23.59732272730039
 72
     1
 10
-53.75568254467243
 20
23.59732272730039
 11
-55.05821217543991
 21
25.0702732573366
 72
     1
 10
-55.05821217543991
 20
25.0702732573366
 11
-53.65548795769061
 21
25.0702732573366
 72
     1
 10
-53.65548795769061
 20
25.0702732573366
 11
-53.05432043579882
 21
24.39044993578111
 72
     1
 10
-53.05432043579882
 20
24.39044993578111
 11
-52.45315291390602
 21
25.0702732573366
 72
     1
 10
-52.45315291390602
 20
25.0702732573366
 11
-51.0504286961588
 21
25.0702732573366
 97
       12
330
14A
330
149
330
148
330
1A5
330
1A6
330
1A2
330
1A3
330
14E
330
14D
330
14C
330
14B
330
1A4
 75
     1
 76
     0
 52
45.0
 41
0.1
 77
     0
 78
     1
 53
45.0
 43
0.0
 44
0.0
 45
-0.0707106781186548
 46
0.0707106781186548
 79
     0
 98
        1
 10
0.0
 20
0.0
  0
HATCH
  5
224
330
7D
100
AcDbEntity
  8
1
  6
Continuous
 62
     2
100
AcDbHatch
 10
0.0
 20
0.0
 30
0.0
210
0.0
220
0.0
230
1.0
  2
_USER
 70
     0
 71
     1
 91
        2
 92
        1
 93
        6
 72
     1
 10
-70.06816411030482
 20
22.95954197466921
 11
-70.8269316980851
 21
22.95954197466921
 72
     1
 10
-70.8269316980851
 20
22.95954197466921
 11
-70.8269316980851
 21
22.0164637335254
 72
     1
 10
-70.8269316980851
 20
22.0164637335254
 11
-72.06743610833922
 21
22.0164637335254
 72
     1
 10
-72.06743610833922
 20
22.0164637335254
 11
-72.06743610833922
 21
25.0702732573366
 72
     1
 10
-72.06743610833922
 20
25.0702732573366
 11
-70.06816411030482
 21
25.0702732573366
 72
     2
 10
-70.06816411030482
 20
24.01490761600292
 40
1.055365641333708
 50
270.0
 51
450.0
 73
     0
 97
        6
330
172
330
171
330
17E
330
17D
330
173
330
1C3
 92
       16
 93
        4
 72
     2
 10
-70.5096366365432
 20
24.05430358722541
 40
0.3528638246711182
 50
270.0
 51
450.0
 73
     1
 72
     1
 10
-70.5096366365432
 20
24.4071674118965
 11
-70.8269316980851
 21
24.4071674118965
 72
     1
 10
-70.8269316980851
 20
24.4071674118965
 11
-70.8269316980851
 21
23.70143976255429
 72
     1
 10
-70.8269316980851
 20
23.70143976255429
 11
-70.5096366365432
 21
23.70143976255429
 97
        4
330
1D7
330
16F
330
17F
330
170
 75
     1
 76
     0
 52
45.0
 41
0.1
 77
     0
 78
     1
 53
45.0
 43
0.0
 44
0.0
 45
-0.0707106781186548
 46
0.0707106781186548
 79
     0
 98
        1
 10
0.0
 20
0.0
  0
HATCH
  5
225
330
7D
100
AcDbEntity
  8
1
  6
Continuous
 62
     2
100
AcDbHatch
 10
0.0
 20
0.0
 30
0.0
210
0.0
220
0.0
230
1.0
  2
_USER
 70
     0
 71
     1
 91
        2
 92
        1
 93
        6
 72
     1
 10
-70.06816411030482
 20
22.95954197466921
 11
-70.8269316980851
 21
22.95954197466921
 72
     1
 10
-70.8269316980851
 20
22.95954197466921
 11
-70.8269316980851
 21
22.0164637335254
 72
     1
 10
-70.8269316980851
 20
22.0164637335254
 11
-72.06743610833922
 21
22.0164637335254
 72
     1
 10
-72.06743610833922
 20
22.0164637335254
 11
-72.06743610833922
 21
25.0702732573366
 72
     1
 10
-72.06743610833922
 20
25.0702732573366
 11
-70.06816411030482
 21
25.0702732573366
 72
     2
 10
-70.06816411030482
 20
24.01490761600292
 40
1.055365641333708
 50
270.0
 51
450.0
 73
     0
 97
        6
330
172
330
171
330
17E
330
17D
330
173
330
1C3
 92
       16
 93
        4
 72
     2
 10
-70.5096366365432
 20
24.05430358722541
 40
0.3528638246711182
 50
270.0
 51
450.0
 73
     1
 72
     1
 10
-70.5096366365432
 20
24.4071674118965
 11
-70.8269316980851
 21
24.4071674118965
 72
     1
 10
-70.8269316980851
 20
24.4071674118965
 11
-70.8269316980851
 21
23.70143976255429
 72
     1
 10
-70.8269316980851
 20
23.70143976255429
 11
-70.5096366365432
 21
23.70143976255429
 97
        4
330
1D7
330
16F
330
17F
330
170
 75
     1
 76
     0
 52
45.0
 41
0.1
 77
     0
 78
     1
 53
45.0
 43
0.0
 44
0.0
 45
-0.0707106781186548
 46
0.0707106781186548
 79
     0
 98
        1
 10
0.0
 20
0.0
  0
HATCH
  5
226
330
7D
100
AcDbEntity
  8
1
  6
Continuous
 62
     2
100
AcDbHatch
 10
0.0
 20
0.0
 30
0.0
210
0.0
220
0.0
230
1.0
  2
_USER
 70
     0
 71
     1
 91
        2
 92
        1
 93
        4
 72
     2
 10
-67.51162136194571
 20
19.6456030089536
 40
2.065479772208564
 50
62.45185182430632
 51
117.5481481756664
 73
     1
 72
     2
 10
-67.79256125377901
 20
20.18417801925639
 40
1.45803408365149
 50
117.5481481756624
 51
242.4518518243375
 73
     1
 72
     2
 10
-67.51162136194571
 20
20.7227530295597
 40
2.065479772208515
 50
242.4518518243403
 51
297.548148175687
 73
     1
 72
     2
 10
-67.23068147011242
 20
20.18417801925639
 40
1.458034083652003
 50
297.548148175701
 51
422.451851824299
 73
     1
 97
        4
330
1CF
330
1CE
330
1D0
330
1CD
 92
       16
 93
        4
 72
     2
 10
-67.71136139829213
 20
20.18417801925639
 40
0.7717997786796947
 50
321.8795802028417
 51
398.1204197971537
 73
     1
 72
     2
 10
-67.51162136194571
 20
20.3409091973769
 40
0.5179085730133043
 50
38.12041979714765
 51
141.8795802028582
 73
     1
 72
     2
 10
-67.31188132559961
 20
20.18417801925639
 40
0.7717997786794676
 50
141.8795802028359
 51
218.1204197971687
 73
     1
 72
     2
 10
-67.51162136194571
 20
20.0274468411364
 40
0.5179085730137397
 50
218.1204197971938
 51
321.8795802028004
 73
     1
 97
        4
330
1EB
330
1E8
330
1E9
330
1EA
 75
     1
 76
     0
 52
45.0
 41
0.1
 77
     0
 78
     1
 53
45.0
 43
0.0
 44
0.0
 45
-0.0707106781186548
 46
0.0707106781186548
 79
     0
 98
        1
 10
0.0
 20
0.0
  0
HATCH
  5
227
330
7D
100
AcDbEntity
  8
1
  6
Continuous
 62
     2
100
AcDbHatch
 10
0.0
 20
0.0
 30
0.0
210
0.0
220
0.0
230
1.0
  2
_USER
 70
     0
 71
     1
 91
        2
 92
        1
 93
        4
 72
     2
 10
-67.51162136194571
 20
19.6456030089536
 40
2.065479772208564
 50
62.45185182430632
 51
117.5481481756664
 73
     1
 72
     2
 10
-67.79256125377901
 20
20.18417801925639
 40
1.45803408365149
 50
117.5481481756624
 51
242.4518518243375
 73
     1
 72
     2
 10
-67.51162136194571
 20
20.7227530295597
 40
2.065479772208515
 50
242.4518518243403
 51
297.548148175687
 73
     1
 72
     2
 10
-67.23068147011242
 20
20.18417801925639
 40
1.458034083652003
 50
297.548148175701
 51
422.451851824299
 73
     1
 97
        4
330
1CF
330
1CE
330
1D0
330
1CD
 92
       16
 93
        4
 72
     2
 10
-67.71136139829213
 20
20.18417801925639
 40
0.7717997786796947
 50
321.8795802028417
 51
398.1204197971537
 73
     1
 72
     2
 10
-67.51162136194571
 20
20.3409091973769
 40
0.5179085730133043
 50
38.12041979714765
 51
141.8795802028582
 73
     1
 72
     2
 10
-67.31188132559961
 20
20.18417801925639
 40
0.7717997786794676
 50
141.8795802028359
 51
218.1204197971687
 73
     1
 72
     2
 10
-67.51162136194571
 20
20.0274468411364
 40
0.5179085730137397
 50
218.1204197971938
 51
321.8795802028004
 73
     1
 97
        4
330
1EB
330
1E8
330
1E9
330
1EA
 75
     1
 76
     0
 52
45.0
 41
0.1
 77
     0
 78
     1
 53
45.0
 43
0.0
 44
0.0
 45
-0.0707106781186548
 46
0.0707106781186548
 79
     0
 98
        1
 10
0.0
 20
0.0
  0
HATCH
  5
228
330
7D
100
AcDbEntity
  8
1
  6
Continuous
 62
     2
100
AcDbHatch
 10
0.0
 20
0.0
 30
0.0
210
0.0
220
0.0
230
1.0
  2
_USER
 70
     0
 71
     1
 91
        2
 92
        1
 93
       12
 72
     1
 10
-60.61662616753642
 20
24.37225965189361
 11
-61.9525539939641
 21
24.37225965189361
 72
     1
 10
-61.9525539939641
 20
24.37225965189361
 11
-61.9525539939641
 21
23.8923752981519
 72
     1
 10
-61.9525539939641
 20
23.8923752981519
 11
-60.61662616753642
 21
23.8923752981519
 72
     1
 10
-60.61662616753642
 20
23.8923752981519
 11
-60.61662616753642
 21
23.19436169270961
 72
     1
 10
-60.61662616753642
 20
23.19436169270961
 11
-61.9525539939641
 21
23.19436169270961
 72
     1
 10
-61.9525539939641
 20
23.19436169270961
 11
-61.9525539939641
 21
22.7144773389679
 72
     1
 10
-61.9525539939641
 20
22.7144773389679
 11
-60.61662616753642
 21
22.7144773389679
 72
     1
 10
-60.61662616753642
 20
22.7144773389679
 11
-60.61662616753642
 21
22.0164637335254
 72
     1
 10
-60.61662616753642
 20
22.0164637335254
 11
-63.76694589131742
 21
22.0164637335254
 72
     2
 10
-63.76694589131742
 20
23.54336849543071
 40
1.52690476190589
 50
90.0
 51
270.0
 73
     0
 72
     1
 10
-63.76694589131742
 20
25.0702732573366
 11
-60.61662616753642
 21
25.0702732573366
 72
     1
 10
-60.61662616753642
 20
25.0702732573366
 11
-60.61662616753642
 21
24.37225965189361
 97
       12
330
186
330
1D8
330
187
330
188
330
189
330
18A
330
167
330
166
330
165
330
164
330
18B
330
185
 92
       16
 93
        4
 72
     2
 10
-63.55067388115222
 20
23.70009967355119
 40
0.517908573013521
 50
38.12041979714382
 51
141.8795802028489
 73
     1
 72
     2
 10
-63.35093384480592
 20
23.54336849543071
 40
0.7717997786796724
 50
141.8795802028404
 51
218.120419797156
 73
     1
 72
     2
 10
-63.55067388115222
 20
23.38663731731029
 40
0.5179085730134372
 50
218.1204197971511
 51
321.8795802028562
 73
     1
 72
     2
 10
-63.75041391749841
 20
23.54336849543071
 40
0.7717997786796351
 50
321.879580202844
 51
398.1204197971596
 73
     1
 97
        4
330
1D2
330
1D1
330
1CC
330
1CB
 75
     1
 76
     0
 52
45.0
 41
0.1
 77
     0
 78
     1
 53
45.0
 43
0.0
 44
0.0
 45
-0.0707106781186548
 46
0.0707106781186548
 79
     0
 98
        1
 10
0.0
 20
0.0
  0
HATCH
  5
229
330
7D
100
AcDbEntity
  8
1
  6
Continuous
 62
     2
100
AcDbHatch
 10
0.0
 20
0.0
 30
0.0
210
0.0
220
0.0
230
1.0
  2
_USER
 70
     0
 71
     1
 91
        2
 92
        1
 93
       12
 72
     1
 10
-60.61662616753642
 20
24.37225965189361
 11
-61.9525539939641
 21
24.37225965189361
 72
     1
 10
-61.9525539939641
 20
24.37225965189361
 11
-61.9525539939641
 21
23.8923752981519
 72
     1
 10
-61.9525539939641
 20
23.8923752981519
 11
-60.61662616753642
 21
23.8923752981519
 72
     1
 10
-60.61662616753642
 20
23.8923752981519
 11
-60.61662616753642
 21
23.19436169270961
 72
     1
 10
-60.61662616753642
 20
23.19436169270961
 11
-61.9525539939641
 21
23.19436169270961
 72
     1
 10
-61.9525539939641
 20
23.19436169270961
 11
-61.9525539939641
 21
22.7144773389679
 72
     1
 10
-61.9525539939641
 20
22.7144773389679
 11
-60.61662616753642
 21
22.7144773389679
 72
     1
 10
-60.61662616753642
 20
22.7144773389679
 11
-60.61662616753642
 21
22.0164637335254
 72
     1
 10
-60.61662616753642
 20
22.0164637335254
 11
-63.76694589131742
 21
22.0164637335254
 72
     2
 10
-63.76694589131742
 20
23.54336849543071
 40
1.52690476190589
 50
90.0
 51
270.0
 73
     0
 72
     1
 10
-63.76694589131742
 20
25.0702732573366
 11
-60.61662616753642
 21
25.0702732573366
 72
     1
 10
-60.61662616753642
 20
25.0702732573366
 11
-60.61662616753642
 21
24.37225965189361
 97
       12
330
186
330
1D8
330
187
330
188
330
189
330
18A
330
167
330
166
330
165
330
164
330
18B
330
185
 92
       16
 93
        4
 72
     2
 10
-63.55067388115222
 20
23.70009967355119
 40
0.517908573013521
 50
38.12041979714382
 51
141.8795802028489
 73
     1
 72
     2
 10
-63.35093384480592
 20
23.54336849543071
 40
0.7717997786796724
 50
141.8795802028404
 51
218.120419797156
 73
     1
 72
     2
 10
-63.55067388115222
 20
23.38663731731029
 40
0.5179085730134372
 50
218.1204197971511
 51
321.8795802028562
 73
     1
 72
     2
 10
-63.75041391749841
 20
23.54336849543071
 40
0.7717997786796351
 50
321.879580202844
 51
398.1204197971596
 73
     1
 97
        4
330
1D2
330
1D1
330
1CC
330
1CB
 75
     1
 76
     0
 52
45.0
 41
0.1
 77
     0
 78
     1
 53
45.0
 43
0.0
 44
0.0
 45
-0.0707106781186548
 46
0.0707106781186548
 79
     0
 98
        1
 10
0.0
 20
0.0
  0
HATCH
  5
22A
330
7D
100
AcDbEntity
  8
1
  6
Continuous
 62
     2
100
AcDbHatch
 10
0.0
 20
0.0
 30
0.0
210
0.0
220
0.0
230
1.0
  2
_USER
 70
     0
 71
     1
 91
        4
 92
        1
 93
        8
 72
     1
 10
-72.54455318920603
 20
24.64602864193461
 11
-72.54455318920603
 21
19.0815178727344
 72
     2
 10
-72.96879780458991
 20
19.0815178727344
 40
0.4242446153832873
 50
0.0
 51
90.0
 73
     0
 72
     1
 10
-72.96879780458991
 20
18.65727325735111
 11
-78.44210989530671
 21
18.65727325735111
 72
     2
 10
-78.44210989530671
 20
19.0815178727344
 40
0.4242446153828041
 50
90.0
 51
180.0
 73
     0
 72
     1
 10
-78.86635451068952
 20
19.0815178727344
 11
-78.86635451068952
 21
24.64602864193461
 72
     2
 10
-78.44210989530671
 20
24.64602864193461
 40
0.4242446153837989
 50
180.0
 51
270.0
 73
     0
 72
     1
 10
-78.44210989530671
 20
25.07027325731841
 11
-72.96879780458991
 21
25.07027325731841
 72
     2
 10
-72.96879780458991
 20
24.64602864193461
 40
0.4242446153838841
 50
270.0
 51
360.0
 73
     0
 97
        8
330
17A
330
1C8
330
17B
330
1D3
330
178
330
1CA
330
179
330
1C9
 92
       16
 93
        1
 72
     2
 10
-75.82252424478921
 20
22.3271464135791
 40
0.4709789327785074
 50
0.0
 51
360.0
 73
     1
 97
        1
330
1EE
 92
       16
 93
        8
 72
     2
 10
-75.27266653202852
 20
21.21800481361069
 40
0.3157169230765328
 50
115.3740086783519
 51
180.0
 73
     1
 72
     1
 10
-75.58838345510532
 20
21.21800481361069
 11
-75.58838345510532
 21
20.63615340691561
 72
     2
 10
-75.27266653202852
 20
20.63615340691561
 40
0.315716923076792
 50
180.0
 51
269.8110329574542
 73
     1
 72
     2
 10
-75.2670503967185
 20
22.3389883544846
 40
2.018561131933266
 50
269.8110329575858
 51
450.1889670424142
 73
     1
 72
     2
 10
-75.27266653202852
 20
24.0418233020537
 40
0.3157169230760746
 50
90.18896704254594
 51
180.0
 73
     1
 72
     1
 10
-75.58838345510532
 20
24.0418233020537
 11
-75.58838345510532
 21
23.43628801354691
 72
     2
 10
-75.27266653202852
 20
23.43628801354691
 40
0.315716923076792
 50
180.0
 51
244.6259913216475
 73
     1
 72
     2
 10
-75.7987092301164
 20
22.3271464135791
 40
0.911848150144459
 50
295.3740086781925
 51
424.6259913218236
 73
     0
 97
        8
330
1E0
330
141
330
1DD
330
1DE
330
1BC
330
140
330
1DF
330
1BB
 92
       16
 93
       12
 72
     2
 10
-77.84821521856023
 20
19.6855457359847
 40
0.3157169230756836
 50
180.0
 51
270.0
 73
     1
 72
     1
 10
-77.84821521856023
 20
19.369828812908
 11
-76.3723819575506
 21
19.369828812908
 72
     2
 10
-76.3723819575506
 20
19.6855457359847
 40
0.3157169230766996
 50
270.0
 51
360.0
 73
     1
 72
     1
 10
-76.05666503447401
 20
19.6855457359847
 11
-76.05666503447401
 21
21.21631666751631
 72
     2
 10
-76.3723819575506
 20
21.21631666751631
 40
0.315716923076593
 50
0.0
 51
64.80558935146027
 73
     1
 72
     2
 10
-75.84979750997562
 20
22.3271464135791
 40
0.9118975235576178
 50
115.1944106485122
 51
244.8055893514719
 73
     0
 72
     2
 10
-76.3723819575506
 20
23.4379761596413
 40
0.3157169230761203
 50
295.1944106485397
 51
360.0
 73
     1
 72
     1
 10
-76.05666503447401
 20
23.4379761596413
 11
-76.05666503447401
 21
24.04200077870181
 72
     2
 10
-76.3723819575506
 20
24.04200077870181
 40
0.315716923076593
 50
0.0
 51
90.0
 73
     1
 72
     1
 10
-76.3723819575506
 20
24.357717701778
 11
-77.84821521856023
 21
24.357717701778
 72
     2
 10
-77.84821521856023
 20
24.04200077870181
 40
0.3157169230761916
 50
90.0
 51
180.0
 73
     1
 72
     1
 10
-78.16393214163591
 20
24.04200077870181
 11
-78.16393214163591
 21
19.6855457359847
 97
       12
330
1C4
330
17C
330
1C7
330
177
330
1D4
330
1D5
330
1C6
330
176
330
1C5
330
175
330
1D6
330
174
 75
     1
 76
     0
 52
45.0
 41
0.1
 77
     0
 78
     1
 53
45.0
 43
0.0
 44
0.0
 45
-0.0707106781186548
 46
0.0707106781186548
 79
     0
 98
        1
 10
0.0
 20
0.0
  0
HATCH
  5
22B
330
7D
100
AcDbEntity
  8
1
  6
Continuous
 62
     2
100
AcDbHatch
 10
0.0
 20
0.0
 30
0.0
210
0.0
220
0.0
230
1.0
  2
_USER
 70
     0
 71
     1
 91
        4
 92
        1
 93
        8
 72
     1
 10
-72.54455318920603
 20
24.64602864193461
 11
-72.54455318920603
 21
19.0815178727344
 72
     2
 10
-72.96879780458991
 20
19.0815178727344
 40
0.4242446153832873
 50
0.0
 51
90.0
 73
     0
 72
     1
 10
-72.96879780458991
 20
18.65727325735111
 11
-78.44210989530671
 21
18.65727325735111
 72
     2
 10
-78.44210989530671
 20
19.0815178727344
 40
0.4242446153828041
 50
90.0
 51
180.0
 73
     0
 72
     1
 10
-78.86635451068952
 20
19.0815178727344
 11
-78.86635451068952
 21
24.64602864193461
 72
     2
 10
-78.44210989530671
 20
24.64602864193461
 40
0.4242446153837989
 50
180.0
 51
270.0
 73
     0
 72
     1
 10
-78.44210989530671
 20
25.07027325731841
 11
-72.96879780458991
 21
25.07027325731841
 72
     2
 10
-72.96879780458991
 20
24.64602864193461
 40
0.4242446153838841
 50
270.0
 51
360.0
 73
     0
 97
        8
330
17A
330
1C8
330
17B
330
1D3
330
178
330
1CA
330
179
330
1C9
 92
       16
 93
        1
 72
     2
 10
-75.82252424478921
 20
22.3271464135791
 40
0.4709789327785074
 50
0.0
 51
360.0
 73
     1
 97
        1
330
1EE
 92
       16
 93
        8
 72
     2
 10
-75.27266653202852
 20
21.21800481361069
 40
0.3157169230765328
 50
115.3740086783519
 51
180.0
 73
     1
 72
     1
 10
-75.58838345510532
 20
21.21800481361069
 11
-75.58838345510532
 21
20.63615340691561
 72
     2
 10
-75.27266653202852
 20
20.63615340691561
 40
0.315716923076792
 50
180.0
 51
269.8110329574542
 73
     1
 72
     2
 10
-75.2670503967185
 20
22.3389883544846
 40
2.018561131933266
 50
269.8110329575858
 51
450.1889670424142
 73
     1
 72
     2
 10
-75.27266653202852
 20
24.0418233020537
 40
0.3157169230760746
 50
90.18896704254594
 51
180.0
 73
     1
 72
     1
 10
-75.58838345510532
 20
24.0418233020537
 11
-75.58838345510532
 21
23.43628801354691
 72
     2
 10
-75.27266653202852
 20
23.43628801354691
 40
0.315716923076792
 50
180.0
 51
244.6259913216475
 73
     1
 72
     2
 10
-75.7987092301164
 20
22.3271464135791
 40
0.911848150144459
 50
295.3740086781925
 51
424.6259913218236
 73
     0
 97
        8
330
1E0
330
141
330
1DD
330
1DE
330
1BC
330
140
330
1DF
330
1BB
 92
       16
 93
       12
 72
     2
 10
-77.84821521856023
 20
19.6855457359847
 40
0.3157169230756836
 50
180.0
 51
270.0
 73
     1
 72
     1
 10
-77.84821521856023
 20
19.369828812908
 11
-76.3723819575506
 21
19.369828812908
 72
     2
 10
-76.3723819575506
 20
19.6855457359847
 40
0.3157169230766996
 50
270.0
 51
360.0
 73
     1
 72
     1
 10
-76.05666503447401
 20
19.6855457359847
 11
-76.05666503447401
 21
21.21631666751631
 72
     2
 10
-76.3723819575506
 20
21.21631666751631
 40
0.315716923076593
 50
0.0
 51
64.80558935146027
 73
     1
 72
     2
 10
-75.84979750997562
 20
22.3271464135791
 40
0.9118975235576178
 50
115.1944106485122
 51
244.8055893514719
 73
     0
 72
     2
 10
-76.3723819575506
 20
23.4379761596413
 40
0.3157169230761203
 50
295.1944106485397
 51
360.0
 73
     1
 72
     1
 10
-76.05666503447401
 20
23.4379761596413
 11
-76.05666503447401
 21
24.04200077870181
 72
     2
 10
-76.3723819575506
 20
24.04200077870181
 40
0.315716923076593
 50
0.0
 51
90.0
 73
     1
 72
     1
 10
-76.3723819575506
 20
24.357717701778
 11
-77.84821521856023
 21
24.357717701778
 72
     2
 10
-77.84821521856023
 20
24.04200077870181
 40
0.3157169230761916
 50
90.0
 51
180.0
 73
     1
 72
     1
 10
-78.16393214163591
 20
24.04200077870181
 11
-78.16393214163591
 21
19.6855457359847
 97
       12
330
1C4
330
17C
330
1C7
330
177
330
1D4
330
1D5
330
1C6
330
176
330
1C5
330
175
330
1D6
330
174
 75
     1
 76
     0
 52
45.0
 41
0.1
 77
     0
 78
     1
 53
45.0
 43
0.0
 44
0.0
 45
-0.0707106781186548
 46
0.0707106781186548
 79
     0
 98
        1
 10
0.0
 20
0.0
  0
HATCH
  5
22C
330
7D
100
AcDbEntity
  8
1
  6
Continuous
 62
     2
100
AcDbHatch
 10
0.0
 20
0.0
 30
0.0
210
0.0
220
0.0
230
1.0
  2
_USER
 70
     0
 71
     1
 91
        1
 92
        1
 93
       18
 72
     1
 10
-50.95500527998502
 20
20.9258174750386
 11
-51.7661043174584
 21
20.9258174750386
 72
     1
 10
-51.7661043174584
 20
20.9258174750386
 11
-51.7661043174584
 21
18.65727325735111
 72
     1
 10
-51.7661043174584
 20
18.65727325735111
 11
-52.95889701962611
 21
18.65727325735111
 72
     1
 10
-52.95889701962611
 20
18.65727325735111
 11
-52.95889701962611
 21
20.9258174750386
 72
     1
 10
-52.95889701962611
 20
20.9258174750386
 11
-54.06253631919421
 21
20.9258174750386
 72
     2
 10
-54.06253631919421
 20
19.97129446821251
 40
0.9545230068260899
 50
90.0
 51
109.337143219432
 73
     1
 72
     2
 10
-54.20920631729791
 20
20.38924944859539
 40
0.511580060194421
 50
109.337143219485
 51
151.4785267424218
 73
     1
 72
     2
 10
-53.83184905921652
 20
20.18417801925639
 40
0.9410597353348958
 50
151.478526742362
 51
208.5214732576695
 73
     1
 72
     2
 10
-54.20920631729791
 20
19.97910658991791
 40
0.5115800601960266
 50
208.5214732576876
 51
246.6277221118445
 73
     1
 72
     2
 10
-54.05276628459481
 20
20.3410986086279
 40
0.9059297849852797
 50
246.6277221118177
 51
288.4480761180818
 73
     1
 72
     2
 10
-54.47093401825671
 20
21.59464438466449
 40
2.227384008972746
 50
288.4480761181335
 51
301.9309089499397
 73
     1
 72
     1
 10
-53.2928789762328
 20
19.70429366551471
 11
-53.2928789762328
 21
18.83177665871139
 72
     2
 10
-54.62880689334952
 20
23.4968589645128
 40
4.852596863498825
 50
74.02000874166129
 51
84.8418552303636
 73
     0
 72
     2
 10
-54.3399507986137
 20
20.29696838129121
 40
1.639695123940449
 50
84.84185523032356
 51
164.9381082228987
 73
     0
 72
     2
 10
-54.75907864207531
 20
20.18417801925639
 40
1.205656168393004
 50
164.9381082229043
 51
195.0618917770975
 73
     0
 72
     2
 10
-54.3399507986137
 20
20.07138765722149
 40
1.639695123940221
 50
195.0618917771053
 51
270.0
 73
     0
 72
     1
 10
-54.3399507986137
 20
21.71108278116171
 11
-50.95500527998502
 21
21.71108278116219
 72
     1
 10
-50.95500527998502
 20
21.71108278116219
 11
-50.95500527998502
 21
20.9258174750386
 97
       18
330
143
330
1D9
330
1DA
330
1C2
330
1C1
330
1A7
330
1C0
330
1BF
330
1DB
330
1BE
330
1DC
330
1BD
330
1A8
330
142
330
147
330
146
330
145
330
144
 75
     1
 76
     0
 52
45.0
 41
0.1
 77
     0
 78
     1
 53
45.0
 43
0.0
 44
0.0
 45
-0.0707106781186548
 46
0.0707106781186548
 79
     0
 98
        1
 10
0.0
 20
0.0
  0
HATCH
  5
22D
330
7D
100
AcDbEntity
  8
1
  6
Continuous
 62
     2
100
AcDbHatch
 10
0.0
 20
0.0
 30
0.0
210
0.0
220
0.0
230
1.0
  2
_USER
 70
     0
 71
     1
 91
        1
 92
        1
 93
       18
 72
     1
 10
-50.95500527998502
 20
20.9258174750386
 11
-51.7661043174584
 21
20.9258174750386
 72
     1
 10
-51.7661043174584
 20
20.9258174750386
 11
-51.7661043174584
 21
18.65727325735111
 72
     1
 10
-51.7661043174584
 20
18.65727325735111
 11
-52.95889701962611
 21
18.65727325735111
 72
     1
 10
-52.95889701962611
 20
18.65727325735111
 11
-52.95889701962611
 21
20.9258174750386
 72
     1
 10
-52.95889701962611
 20
20.9258174750386
 11
-54.06253631919421
 21
20.9258174750386
 72
     2
 10
-54.06253631919421
 20
19.97129446821251
 40
0.9545230068260899
 50
90.0
 51
109.337143219432
 73
     1
 72
     2
 10
-54.20920631729791
 20
20.38924944859539
 40
0.511580060194421
 50
109.337143219485
 51
151.4785267424218
 73
     1
 72
     2
 10
-53.83184905921652
 20
20.18417801925639
 40
0.9410597353348958
 50
151.478526742362
 51
208.5214732576695
 73
     1
 72
     2
 10
-54.20920631729791
 20
19.97910658991791
 40
0.5115800601960266
 50
208.5214732576876
 51
246.6277221118445
 73
     1
 72
     2
 10
-54.05276628459481
 20
20.3410986086279
 40
0.9059297849852797
 50
246.6277221118177
 51
288.4480761180818
 73
     1
 72
     2
 10
-54.47093401825671
 20
21.59464438466449
 40
2.227384008972746
 50
288.4480761181335
 51
301.9309089499397
 73
     1
 72
     1
 10
-53.2928789762328
 20
19.70429366551471
 11
-53.2928789762328
 21
18.83177665871139
 72
     2
 10
-54.62880689334952
 20
23.4968589645128
 40
4.852596863498825
 50
74.02000874166129
 51
84.8418552303636
 73
     0
 72
     2
 10
-54.3399507986137
 20
20.29696838129121
 40
1.639695123940449
 50
84.84185523032356
 51
164.9381082228987
 73
     0
 72
     2
 10
-54.75907864207531
 20
20.18417801925639
 40
1.205656168393004
 50
164.9381082229043
 51
195.0618917770975
 73
     0
 72
     2
 10
-54.3399507986137
 20
20.07138765722149
 40
1.639695123940221
 50
195.0618917771053
 51
270.0
 73
     0
 72
     1
 10
-54.3399507986137
 20
21.71108278116171
 11
-50.95500527998502
 21
21.71108278116219
 72
     1
 10
-50.95500527998502
 20
21.71108278116219
 11
-50.95500527998502
 21
20.9258174750386
 97
       18
330
143
330
1D9
330
1DA
330
1C2
330
1C1
330
1A7
330
1C0
330
1BF
330
1DB
330
1BE
330
1DC
330
1BD
330
1A8
330
142
330
147
330
146
330
145
330
144
 75
     1
 76
     0
 52
45.0
 41
0.1
 77
     0
 78
     1
 53
45.0
 43
0.0
 44
0.0
 45
-0.0707106781186548
 46
0.0707106781186548
 79
     0
 98
        1
 10
0.0
 20
0.0
  0
HATCH
  5
22E
330
7D
100
AcDbEntity
  8
1
  6
Continuous
 62
     2
100
AcDbHatch
 10
0.0
 20
0.0
 30
0.0
210
0.0
220
0.0
230
1.0
  2
_USER
 70
     0
 71
     1
 91
        1
 92
        1
 93
       14
 72
     2
 10
-70.44265227786661
 20
20.07138765722149
 40
1.639695123940517
 50
84.8418552303624
 51
164.9381082228862
 73
     1
 72
     2
 10
-70.86178012132942
 20
20.18417801925639
 40
1.205656168390946
 50
164.9381082228761
 51
195.0618917770945
 73
     1
 72
     2
 10
-70.44265227786661
 20
20.29696838129121
 40
1.639695123939387
 50
195.0618917770896
 51
275.1581447696395
 73
     1
 72
     2
 10
-70.73150837260252
 20
23.4968589645128
 40
4.852596863498145
 50
275.1581447696249
 51
285.9799912583529
 73
     1
 72
     1
 10
-69.39558045548472
 20
18.83177665871199
 11
-69.39558045548472
 21
19.7042936655152
 72
     2
 10
-70.5736354975096
 20
21.59464438466509
 40
2.22738400897274
 50
58.0690910500407
 51
71.55192388186722
 73
     0
 72
     2
 10
-70.1554677638488
 20
20.3410986086279
 40
0.905929784984916
 50
71.55192388184147
 51
113.3722778881291
 73
     0
 72
     2
 10
-70.31190779655083
 20
19.97910658991791
 40
0.5115800601948051
 50
113.3722778881723
 51
151.4785267423041
 73
     0
 72
     2
 10
-69.93455053847052
 20
20.18417801925639
 40
0.9410597353332545
 50
151.4785267422946
 51
208.5214732577331
 73
     0
 72
     2
 10
-70.31190779655083
 20
20.38924944859539
 40
0.5115800601948779
 50
208.5214732576956
 51
246.6277221118009
 73
     0
 72
     2
 10
-70.1554677638488
 20
20.0272574298848
 40
0.9059297849853228
 50
246.6277221118709
 51
288.4480761181465
 73
     0
 72
     2
 10
-70.5736354975096
 20
18.77371165384821
 40
2.227384008973474
 50
288.4480761181328
 51
301.9309089499593
 73
     0
 72
     1
 10
-69.39558045548472
 20
20.6640623729981
 11
-69.39558045548472
 21
21.5365793798014
 72
     2
 10
-70.73150837260252
 20
16.8714970740005
 40
4.852596863498071
 50
74.02000874164739
 51
84.84185523037506
 73
     1
 97
       14
330
1E1
330
1E2
330
1E3
330
1E4
330
1A9
330
1BA
330
1B9
330
1B8
330
1E5
330
1E6
330
1B7
330
1E7
330
1AA
330
1B6
 75
     1
 76
     0
 52
45.0
 41
0.1
 77
     0
 78
     1
 53
45.0
 43
0.0
 44
0.0
 45
-0.0707106781186548
 46
0.0707106781186548
 79
     0
 98
        1
 10
0.0
 20
0.0
  0
HATCH
  5
22F
330
7D
100
AcDbEntity
  8
1
  6
Continuous
 62
     2
100
AcDbHatch
 10
0.0
 20
0.0
 30
0.0
210
0.0
220
0.0
230
1.0
  2
_USER
 70
     0
 71
     1
 91
        1
 92
        1
 93
       14
 72
     2
 10
-70.44265227786661
 20
20.07138765722149
 40
1.639695123940517
 50
84.8418552303624
 51
164.9381082228862
 73
     1
 72
     2
 10
-70.86178012132942
 20
20.18417801925639
 40
1.205656168390946
 50
164.9381082228761
 51
195.0618917770945
 73
     1
 72
     2
 10
-70.44265227786661
 20
20.29696838129121
 40
1.639695123939387
 50
195.0618917770896
 51
275.1581447696395
 73
     1
 72
     2
 10
-70.73150837260252
 20
23.4968589645128
 40
4.852596863498145
 50
275.1581447696249
 51
285.9799912583529
 73
     1
 72
     1
 10
-69.39558045548472
 20
18.83177665871199
 11
-69.39558045548472
 21
19.7042936655152
 72
     2
 10
-70.5736354975096
 20
21.59464438466509
 40
2.22738400897274
 50
58.0690910500407
 51
71.55192388186722
 73
     0
 72
     2
 10
-70.1554677638488
 20
20.3410986086279
 40
0.905929784984916
 50
71.55192388184147
 51
113.3722778881291
 73
     0
 72
     2
 10
-70.31190779655083
 20
19.97910658991791
 40
0.5115800601948051
 50
113.3722778881723
 51
151.4785267423041
 73
     0
 72
     2
 10
-69.93455053847052
 20
20.18417801925639
 40
0.9410597353332545
 50
151.4785267422946
 51
208.5214732577331
 73
     0
 72
     2
 10
-70.31190779655083
 20
20.38924944859539
 40
0.5115800601948779
 50
208.5214732576956
 51
246.6277221118009
 73
     0
 72
     2
 10
-70.1554677638488
 20
20.0272574298848
 40
0.9059297849853228
 50
246.6277221118709
 51
288.4480761181465
 73
     0
 72
     2
 10
-70.5736354975096
 20
18.77371165384821
 40
2.227384008973474
 50
288.4480761181328
 51
301.9309089499593
 73
     0
 72
     1
 10
-69.39558045548472
 20
20.6640623729981
 11
-69.39558045548472
 21
21.5365793798014
 72
     2
 10
-70.73150837260252
 20
16.8714970740005
 40
4.852596863498071
 50
74.02000874164739
 51
84.84185523037506
 73
     1
 97
       14
330
1E1
330
1E2
330
1E3
330
1E4
330
1A9
330
1BA
330
1B9
330
1B8
330
1E5
330
1E6
330
1B7
330
1E7
330
1AA
330
1B6
 75
     1
 76
     0
 52
45.0
 41
0.1
 77
     0
 78
     1
 53
45.0
 43
0.0
 44
0.0
 45
-0.0707106781186548
 46
0.0707106781186548
 79
     0
 98
        1
 10
0.0
 20
0.0
  0
ENDBLK
  5
7F
330
7D
100
AcDbEntity
  8
0
100
AcDbBlockEnd
  0
BLOCK
  5
81
330
80
100
AcDbEntity
  8
0
100
AcDbBlockBegin
  2
_punkt
 70
     0
 10
46.44179512949789
 20
11.3637732573348
 30
0.0
  3
_punkt
  1

  0
LINE
  5
230
330
80
100
AcDbEntity
  8
1
  6
Continuous
 62
     2
100
AcDbLine
 10
46.44179512949789
 20
11.3637732573348
 30
0.0
 11
51.44179512949688
 21
11.3637732573348
 31
0.0
  0
LINE
  5
231
330
80
100
AcDbEntity
  8
1
  6
Continuous
 62
     2
100
AcDbLine
 10
46.44179512949789
 20
11.3637732573348
 30
0.0
 11
46.44179512949789
 21
6.36377325733469
 31
0.0
  0
ENDBLK
  5
82
330
80
100
AcDbEntity
  8
0
100
AcDbBlockEnd
  0
BLOCK
  5
86
330
83
100
AcDbEntity
  8
0
100
AcDbBlockBegin
  2
A4I_CS
 70
     0
 10
46.44179512949789
 20
6.36377325733469
 30
0.0
  3
A4I_CS
  1

  0
INSERT
  5
84
330
83
100
AcDbEntity
  8
1
100
AcDbBlockReference
  2
_rahmen
 10
46.44179512949789
 20
6.36377325733469
 30
0.0
  0
INSERT
  5
85
330
83
100
AcDbEntity
  8
1
100
AcDbBlockReference
  2
_punkt
 10
46.44179512949789
 20
11.3637732573348
 30
0.0
  0
ENDBLK
  5
87
330
83
100
AcDbEntity
  8
0
100
AcDbBlockEnd
  0
BLOCK
  5
89
330
88
100
AcDbEntity
  8
0
100
AcDbBlockBegin
  2
PLT_SEC_T3_230_P-select__2
 70
     0
 10
-142.0245427155043
 20
74.21930454349146
 30
0.0
  3
PLT_SEC_T3_230_P-select__2
  1

  0
LINE
  5
232
330
88
100
AcDbEntity
  8
0
  6
Continuous
 62
     7
100
AcDbLine
 10
-121.1914140778485
 20
74.21930454349146
 30
0.0
 11
-121.1914140778485
 21
91.7194187742989
 31
0.0
  0
LINE
  5
233
330
88
100
AcDbEntity
  8
0
  6
Continuous
 62
     7
100
AcDbLine
 10
-114.0583078792609
 20
86.20761831054509
 30
0.0
 11
-117.1987896295234
 21
86.20761681425606
 31
0.0
  0
LINE
  5
234
330
88
100
AcDbEntity
  8
0
  6
Continuous
 62
     7
100
AcDbLine
 10
-117.1987896295234
 20
86.20761681425606
 30
0.0
 11
-117.2110517914042
 21
86.22216835088162
 31
0.0
  0
LINE
  5
235
330
88
100
AcDbEntity
  8
0
  6
Continuous
 62
     7
100
AcDbLine
 10
-117.2110517914042
 20
86.22216835088162
 30
0.0
 11
-114.0394445066766
 21
86.2226023887091
 31
0.0
  0
LINE
  5
236
330
88
100
AcDbEntity
  8
0
  6
Continuous
 62
     7
100
AcDbLine
 10
-117.2110517914042
 20
79.71555770790553
 30
0.0
 11
-117.2110517914042
 21
86.22216835088162
 31
0.0
  0
LINE
  5
237
330
88
100
AcDbEntity
  8
0
  6
Continuous
 62
     7
100
AcDbLine
 10
-117.1987896295234
 20
79.73065198284016
 30
0.0
 11
-114.0575901238083
 21
79.73065163907216
 31
0.0
  0
LINE
  5
238
330
88
100
AcDbEntity
  8
0
  6
Continuous
 62
     7
100
AcDbLine
 10
-117.2110517914042
 20
79.71555770790553
 30
0.0
 11
-114.0386287479126
 21
79.71502794970205
 31
0.0
  0
LINE
  5
239
330
88
100
AcDbEntity
  8
0
  6
Continuous
 62
     7
100
AcDbLine
 10
-117.1987896295234
 20
79.73065198284016
 30
0.0
 11
-117.2110517914042
 21
79.71555770790553
 31
0.0
  0
LINE
  5
23A
330
88
100
AcDbEntity
  8
0
  6
Continuous
 62
     7
100
AcDbLine
 10
-117.1987896295234
 20
86.20761681425606
 30
0.0
 11
-117.1987896295234
 21
79.73065198284016
 31
0.0
  0
LINE
  5
23B
330
88
100
AcDbEntity
  8
0
  6
Continuous
 62
     7
100
AcDbLine
 10
-113.5569451275185
 20
79.47423487202606
 30
0.0
 11
-113.5569451275185
 21
86.46376549035057
 31
0.0
  0
LINE
  5
23C
330
88
100
AcDbEntity
  8
0
  6
Continuous
 62
     7
100
AcDbLine
 10
-118.5182519138712
 20
74.21930454349146
 30
0.0
 11
-118.1552037179659
 21
74.21930454349146
 31
0.0
  0
LINE
  5
23D
330
88
100
AcDbEntity
  8
0
  6
Continuous
 62
     7
100
AcDbLine
 10
-114.0386287479126
 20
79.71502794970205
 30
0.0
 11
-113.5569451275185
 21
79.47423487202606
 31
0.0
  0
LINE
  5
23E
330
88
100
AcDbEntity
  8
0
  6
Continuous
 62
     7
100
AcDbLine
 10
-118.1552037179659
 20
74.21930454349146
 30
0.0
 11
-97.05820509894198
 21
74.21930454349146
 31
0.0
  0
LINE
  5
23F
330
88
100
AcDbEntity
  8
0
  6
Continuous
 62
     7
100
AcDbLine
 10
-118.1552037179659
 20
91.7194187742989
 30
0.0
 11
-97.05820509894198
 21
91.7194187742989
 31
0.0
  0
LINE
  5
240
330
88
100
AcDbEntity
  8
0
  6
Continuous
 62
     7
100
AcDbLine
 10
-97.05820509894198
 20
74.21930454349146
 30
0.0
 11
-97.05820509894198
 21
91.7194187742989
 31
0.0
  0
LINE
  5
241
330
88
100
AcDbEntity
  8
0
  6
Continuous
 62
     2
100
AcDbLine
 10
-118.5182519138712
 20
91.7194187742989
 30
0.0
 11
-118.5182519138712
 21
74.21930454349146
 31
0.0
  0
LINE
  5
242
330
88
100
AcDbEntity
  8
0
  6
Continuous
 62
     7
100
AcDbLine
 10
-118.5182519138712
 20
91.7194187742989
 30
0.0
 11
-118.1552037179659
 21
91.7194187742989
 31
0.0
  0
LINE
  5
243
330
88
100
AcDbEntity
  8
0
  6
Continuous
 62
     7
100
AcDbLine
 10
-114.0394445066766
 20
86.2226023887091
 30
0.0
 11
-113.5569451275185
 21
86.46376549035057
 31
0.0
  0
LINE
  5
244
330
88
100
AcDbEntity
  8
0
  6
Continuous
 62
     7
100
AcDbLine
 10
-142.0245427155043
 20
90.71930454349155
 30
0.0
 11
-141.9287243341564
 21
90.71930454349155
 31
0.0
  0
LINE
  5
245
330
88
100
AcDbEntity
  8
0
  6
Continuous
 62
     7
100
AcDbLine
 10
-141.9287243341564
 20
74.21930454349148
 30
0.0
 11
-141.9287243341564
 21
75.21930454349143
 31
0.0
  0
LINE
  5
246
330
88
100
AcDbEntity
  8
0
  6
Continuous
 62
     7
100
AcDbLine
 10
-141.9287243341564
 20
91.7194187742989
 30
0.0
 11
-141.9218287605426
 21
91.7194187742989
 31
0.0
  0
LINE
  5
247
330
88
100
AcDbEntity
  8
0
  6
Continuous
 62
     7
100
AcDbLine
 10
-141.9287243341564
 20
74.21930454349148
 30
0.0
 11
-141.9218287605426
 21
74.21930454349148
 31
0.0
  0
LINE
  5
248
330
88
100
AcDbEntity
  8
0
  6
Continuous
 62
     7
100
AcDbLine
 10
-142.0245427155043
 20
75.21930454349143
 30
0.0
 11
-141.9287243341564
 21
75.21930454349143
 31
0.0
  0
LINE
  5
249
330
88
100
AcDbEntity
  8
0
  6
Continuous
 62
     7
100
AcDbLine
 10
-141.8682420354352
 20
91.7194187742989
 30
0.0
 11
-141.8734314501204
 21
91.7194187742989
 31
0.0
  0
LINE
  5
24A
330
88
100
AcDbEntity
  8
0
  6
Continuous
 62
     7
100
AcDbLine
 10
-141.8734314501204
 20
74.21930454349148
 30
0.0
 11
-141.8682420354352
 21
74.21930454349146
 31
0.0
  0
LINE
  5
24B
330
88
100
AcDbEntity
  8
0
  6
Continuous
 62
     7
100
AcDbLine
 10
-141.8734314501204
 20
74.21930454349148
 30
0.0
 11
-141.8734314501204
 21
91.7194187742989
 31
0.0
  0
LINE
  5
24C
330
88
100
AcDbEntity
  8
0
  6
Continuous
 62
     7
100
AcDbLine
 10
-141.9218287605426
 20
74.21930454349148
 30
0.0
 11
-141.9218287605426
 21
91.7194187742989
 31
0.0
  0
LINE
  5
24D
330
88
100
AcDbEntity
  8
0
  6
Continuous
 62
     7
100
AcDbLine
 10
-141.9287243341564
 20
90.71930454349155
 30
0.0
 11
-141.9287243341564
 21
91.7194187742989
 31
0.0
  0
LINE
  5
24E
330
88
100
AcDbEntity
  8
0
  6
Continuous
 62
     7
100
AcDbLine
 10
-142.0245427155043
 20
75.21930454349143
 30
0.0
 11
-142.0245427155043
 21
90.71930454349155
 31
0.0
  0
LINE
  5
24F
330
88
100
AcDbEntity
  8
0
  6
Continuous
 62
     7
100
AcDbLine
 10
-141.9218287605426
 20
74.21930454349148
 30
0.0
 11
-141.8734314501204
 21
74.21930454349148
 31
0.0
  0
LINE
  5
250
330
88
100
AcDbEntity
  8
0
  6
Continuous
 62
     7
100
AcDbLine
 10
-141.8682420354352
 20
74.21930454349146
 30
0.0
 11
-121.1914140778485
 21
74.21930454349146
 31
0.0
  0
LINE
  5
251
330
88
100
AcDbEntity
  8
0
  6
Continuous
 62
     7
100
AcDbLine
 10
-121.1914140778485
 20
74.21930454349146
 30
0.0
 11
-118.5182519138712
 21
74.21930454349146
 31
0.0
  0
LINE
  5
252
330
88
100
AcDbEntity
  8
0
  6
Continuous
 62
     7
100
AcDbLine
 10
-141.9218287605426
 20
91.7194187742989
 30
0.0
 11
-141.8734314501204
 21
91.7194187742989
 31
0.0
  0
LINE
  5
253
330
88
100
AcDbEntity
  8
0
  6
Continuous
 62
     7
100
AcDbLine
 10
-141.8682420354352
 20
91.7194187742989
 30
0.0
 11
-121.1914140778485
 21
91.7194187742989
 31
0.0
  0
LINE
  5
254
330
88
100
AcDbEntity
  8
0
  6
Continuous
 62
     7
100
AcDbLine
 10
-118.5182519138712
 20
91.7194187742989
 30
0.0
 11
-121.1914140778485
 21
91.7194187742989
 31
0.0
  0
LINE
  5
255
330
88
100
AcDbEntity
  8
0
  6
Continuous
 62
     2
100
AcDbLine
 10
-118.1552037179659
 20
91.7194187742989
 30
0.0
 11
-118.1552037179659
 21
74.21930454349146
 31
0.0
  0
LINE
  5
256
330
88
100
AcDbEntity
  8
0
  6
Continuous
 62
     7
100
AcDbLine
 10
-117.7152607188609
 20
79.45145801428674
 30
0.0
 11
-117.7152607188609
 21
86.48612507520241
 31
0.0
  0
LINE
  5
257
330
88
100
AcDbEntity
  8
0
  6
Continuous
 62
     7
100
AcDbLine
 10
-117.2110517914042
 20
86.22216835088162
 30
0.0
 11
-117.7152607188609
 21
86.48612507520241
 31
0.0
  0
LINE
  5
258
330
88
100
AcDbEntity
  8
0
  6
Continuous
 62
     7
100
AcDbLine
 10
-141.8682420354352
 20
74.21930454349146
 30
0.0
 11
-141.8682420354352
 21
91.7194187742989
 31
0.0
  0
LINE
  5
259
330
88
100
AcDbEntity
  8
0
  6
Continuous
 62
     7
100
AcDbLine
 10
-117.7152607188609
 20
79.45145801428674
 30
0.0
 11
-117.2110517914042
 21
79.71555770790553
 31
0.0
  0
SPLINE
  5
25A
330
88
100
AcDbEntity
  8
0
  6
Continuous
 62
     7
100
AcDbSpline
210
0.0
220
0.0
230
1.0
 70
  1080
 71
     3
 72
    11
 73
     7
 74
     5
 42
0.000000001
 43
0.0000000001
 44
0.00000001
 40
0.0
 40
0.0
 40
0.0
 40
0.0
 40
0.0060226106449239
 40
0.0120452212898457
 40
0.0180678319347967
 40
0.0240904425795638
 40
0.0240904425795638
 40
0.0240904425795638
 40
0.0240904425795638
 10
-114.0394445066766
 20
86.2226023887091
 30
0.0
 10
-114.041016454392
 20
86.22135371552872
 30
0.0
 10
-114.0441603498226
 20
86.218856369168
 30
0.0
 10
-114.0488761929686
 20
86.2151103496269
 30
0.0
 10
-114.0535920361148
 20
86.21136433008596
 30
0.0
 10
-114.0567359315455
 20
86.20886698372536
 30
0.0
 10
-114.0583078792609
 20
86.20761831054509
 30
0.0
 11
-114.0394445066766
 21
86.2226023887091
 31
0.0
 11
-114.0441603498226
 21
86.218856369168
 31
0.0
 11
-114.0488761929687
 21
86.21511034962694
 31
0.0
 11
-114.0535920361148
 21
86.2113643300859
 31
0.0
 11
-114.0583078792609
 21
86.20761831054509
 31
0.0
  0
SPLINE
  5
25B
330
88
100
AcDbEntity
  8
0
  6
Continuous
 62
     7
100
AcDbSpline
210
0.0
220
0.0
230
1.0
 70
  1064
 71
     3
 72
    11
 73
     7
 74
     5
 42
0.000000001
 43
0.0000000001
 44
0.00000001
 40
0.0
 40
0.0
 40
0.0
 40
0.0
 40
1.619241677810584
 40
3.238483355621173
 40
4.857725033431836
 40
6.476966711242533
 40
6.476966711242533
 40
6.476966711242533
 40
6.476966711242533
 10
-114.0575901238083
 20
79.73065163907216
 30
0.0
 10
-114.0576499380181
 20
80.27039886169476
 30
0.0
 10
-114.05776956581
 20
81.34989330694003
 30
0.0
 10
-114.0579490056146
 20
82.96913497480806
 30
0.0
 10
-114.0581284435363
 20
84.58837664267651
 30
0.0
 10
-114.0582480675619
 20
85.66787108792215
 30
0.0
 10
-114.0583078792609
 20
86.20761831054509
 30
0.0
 11
-114.0575901238083
 21
79.73065163907216
 31
0.0
 11
-114.0577695659669
 21
81.34989330693999
 31
0.0
 11
-114.0579490059285
 21
82.96913497480806
 31
0.0
 11
-114.0581284436931
 21
84.58837664267645
 31
0.0
 11
-114.0583078792609
 21
86.20761831054509
 31
0.0
  0
SPLINE
  5
25C
330
88
100
AcDbEntity
  8
0
  6
Continuous
 62
     7
100
AcDbSpline
210
0.0
220
0.0
230
1.0
 70
  1080
 71
     3
 72
    11
 73
     7
 74
     5
 42
0.000000001
 43
0.0000000001
 44
0.00000001
 40
0.0
 40
0.0
 40
0.0
 40
0.0
 40
0.0061422382189072
 40
0.0122844764377214
 40
0.0184267146565267
 40
0.0245689528753648
 40
0.0245689528753648
 40
0.0245689528753648
 40
0.0245689528753648
 10
-114.0386287479126
 20
79.71502794970205
 30
0.0
 10
-114.0402088625706
 20
79.71632992381625
 30
0.0
 10
-114.0433690918866
 20
79.71893387204459
 30
0.0
 10
-114.0481094358604
 20
79.72283979438714
 30
0.0
 10
-114.0528497798344
 20
79.72674571672965
 30
0.0
 10
-114.0560100091503
 20
79.72934966495798
 30
0.0
 10
-114.0575901238083
 20
79.73065163907216
 30
0.0
 11
-114.0386287479126
 21
79.71502794970205
 31
0.0
 11
-114.0433690918865
 21
79.71893387204459
 31
0.0
 11
-114.0481094358605
 21
79.72283979438711
 31
0.0
 11
-114.0528497798344
 21
79.72674571672964
 31
0.0
 11
-114.0575901238083
 21
79.73065163907216
 31
0.0
  0
SPLINE
  5
25D
330
88
100
AcDbEntity
  8
0
  6
Continuous
 62
     7
100
AcDbSpline
210
0.0
220
0.0
230
1.0
 70
  1080
 71
     3
 72
    11
 73
     7
 74
     5
 42
0.000000001
 43
0.0000000001
 44
0.00000001
 40
0.0
 40
0.0
 40
0.0
 40
0.0
 40
1.62689362253419
 40
3.253787245068381
 40
4.880680867602599
 40
6.507574490136889
 40
6.507574490136889
 40
6.507574490136889
 40
6.507574490136889
 10
-114.0394445066766
 20
86.2226023887091
 30
0.0
 10
-114.0393765267796
 20
85.68030451879189
 30
0.0
 10
-114.0392405669857
 20
84.59570877895733
 30
0.0
 10
-114.0390366272946
 20
82.96881516920567
 30
0.0
 10
-114.0388326876037
 20
81.34192155945382
 30
0.0
 10
-114.0386967278096
 20
80.25732581961935
 30
0.0
 10
-114.0386287479126
 20
79.71502794970205
 30
0.0
 11
-114.0394445066766
 21
86.2226023887091
 31
0.0
 11
-114.0392405669856
 21
84.59570877895733
 31
0.0
 11
-114.0390366272946
 21
82.96881516920557
 31
0.0
 11
-114.0388326876036
 21
81.34192155945381
 31
0.0
 11
-114.0386287479126
 21
79.71502794970205
 31
0.0
  0
SPLINE
  5
25E
330
88
100
AcDbEntity
  8
0
  6
Continuous
 62
     7
100
AcDbSpline
210
0.0
220
0.0
230
1.0
 70
  1064
 71
     3
 72
     9
 73
     5
 74
     3
 42
0.000000001
 43
0.0000000001
 44
0.00000001
 40
0.0
 40
0.0
 40
0.0
 40
0.0
 40
2.080884756226455
 40
4.158381502006627
 40
4.158381502006627
 40
4.158381502006627
 40
4.158381502006627
 10
-117.7152607188609
 20
79.45145801428674
 30
0.0
 10
-117.0216360338843
 20
79.45390158976257
 30
0.0
 10
-115.6355159950352
 20
79.4587847821855
 30
0.0
 10
-114.249425647711
 20
79.4690876334753
 30
0.0
 10
-113.5569451275185
 20
79.47423487202606
 30
0.0
 11
-117.7152607188609
 21
79.45145801428674
 31
0.0
 11
-115.6343940989545
 21
79.46014587415993
 31
0.0
 11
-113.5569451275185
 21
79.47423487202606
 31
0.0
  0
SPLINE
  5
25F
330
88
100
AcDbEntity
  8
0
  6
Continuous
 62
     7
100
AcDbSpline
210
0.0
220
0.0
230
1.0
 70
  1064
 71
     3
 72
     9
 73
     5
 74
     3
 42
0.000000001
 43
0.0000000001
 44
0.00000001
 40
0.0
 40
0.0
 40
0.0
 40
0.0
 40
2.077495336088424
 40
4.158379234904816
 40
4.158379234904816
 40
4.158379234904816
 40
4.158379234904816
 10
-113.5569451275185
 20
86.46376549035057
 30
0.0
 10
-114.2494256938131
 20
86.46884276228229
 30
0.0
 10
-115.6355163182702
 20
86.47900556758677
 30
0.0
 10
-117.0216360801356
 20
86.48375062379202
 30
0.0
 10
-117.7152607188609
 20
86.48612507520241
 30
0.0
 11
-113.5569451275185
 21
86.46376549035057
 31
0.0
 11
-115.6343940989544
 21
86.47764506538442
 31
0.0
 11
-117.7152607188609
 21
86.48612507520241
 31
0.0
  0
ENDBLK
  5
8A
330
88
100
AcDbEntity
  8
0
100
AcDbBlockEnd
  0
BLOCK
  5
8D
330
8B
100
AcDbEntity
  8
0
100
AcDbBlockBegin
  2
Drfsicht2
 70
     0
 10
-122.0000000000002
 20
83.0
 30
0.0
  3
Drfsicht2
  1

  0
INSERT
  5
8C
330
8B
100
AcDbEntity
  8
0
100
AcDbBlockReference
  2
PLT_SEC_T3_230_P-select__2
 10
-142.0245427155043
 20
74.21930454349146
 30
0.0
  0
MTEXT
  5
260
330
8B
100
AcDbEntity
  8
1
 62
     6
100
AcDbMText
 10
-119.5413742065401
 20
69.21930408478318
 30
0.0
 40
5.0
 41
0.0
 71
     2
 72
     1
  1
 
  7
CONVERTER_11
 73
     1
 44
1.32052821128451
  0
DIMENSION
  5
26B
330
8B
100
AcDbEntity
  8
1
100
AcDbDimension
  2
*D17
 10
-151.8682420354352
 20
74.21930454349146
 30
0.0
 11
-155.2932420354352
 21
83.465655854796
 31
0.0
 70
    32
  1
<>
 71
     5
 42
-1.0
 53
90.0
  3
ME10_DIM_10
100
AcDbAlignedDimension
 13
-141.8682420354352
 23
91.7194187742989
 33
0.0
 14
-141.8682420354352
 24
74.21930454349146
 34
0.0
 50
90.0
100
AcDbRotatedDimension
  0
ENDBLK
  5
8E
330
8B
100
AcDbEntity
  8
0
100
AcDbBlockEnd
  0
BLOCK
  5
90
330
8F
100
AcDbEntity
  8
0
100
AcDbBlockBegin
  2
PLT_SEC_T3_230_P-select__3
 70
     0
 10
-30.55809090105816
 20
121.7194167356254
 30
0.0
  3
PLT_SEC_T3_230_P-select__3
  1

  0
LINE
  5
26C
330
8F
100
AcDbEntity
  8
0
  6
Continuous
 62
     7
100
AcDbLine
 10
6.23750246208029
 20
131.2127266206864
 30
0.0
 11
6.26403141283598
 21
123.6127729224863
 31
0.0
  0
LINE
  5
26D
330
8F
100
AcDbEntity
  8
0
  6
Continuous
 62
     7
100
AcDbLine
 10
8.16401983738578
 20
123.6194051601752
 30
0.0
 11
6.26403141283598
 21
123.6127729224863
 31
0.0
  0
LINE
  5
26E
330
8F
100
AcDbEntity
  8
0
  6
Continuous
 62
     7
100
AcDbLine
 10
11.77063014264275
 20
121.7319830807202
 30
0.0
 11
11.73746895419813
 21
131.2319252034701
 31
0.0
  0
LINE
  5
26F
330
8F
100
AcDbEntity
  8
0
  6
Continuous
 62
     7
100
AcDbLine
 10
11.77063014264275
 20
121.7319830807202
 30
0.0
 11
8.17065207507471
 21
121.7194167356254
 31
0.0
  0
LINE
  5
270
330
8F
100
AcDbEntity
  8
0
  6
Continuous
 62
     7
100
AcDbLine
 10
14.30553276054239
 20
160.666509083236
 30
0.0
 11
13.21975615946155
 21
160.9481336616652
 31
0.0
  0
LINE
  5
271
330
8F
100
AcDbEntity
  8
0
  6
Continuous
 62
     7
100
AcDbLine
 10
14.31242833415618
 20
158.6910807796455
 30
0.0
 11
14.30553276054239
 21
160.666509083236
 31
0.0
  0
LINE
  5
272
330
8F
100
AcDbEntity
  8
0
  6
Continuous
 62
     7
100
AcDbLine
 10
14.31242833415618
 20
158.6910807796455
 30
0.0
 11
13.0124362542011
 21
158.6865429328057
 31
0.0
  0
LINE
  5
273
330
8F
100
AcDbEntity
  8
0
  6
Continuous
 62
     7
100
AcDbLine
 10
13.11072908854219
 20
174.5494557978554
 30
0.0
 11
14.25713545012023
 21
174.5786599799083
 31
0.0
  0
LINE
  5
274
330
8F
100
AcDbEntity
  8
0
  6
Continuous
 62
     7
100
AcDbLine
 10
13.10825463554898
 20
131.2367101676003
 30
0.0
 11
13.0124362542011
 21
158.6865429328057
 31
0.0
  0
LINE
  5
275
330
8F
100
AcDbEntity
  8
0
  6
Continuous
 62
     7
100
AcDbLine
 10
13.11072908854219
 20
174.5494557978554
 30
0.0
 11
13.21975615946155
 21
160.9481336616652
 31
0.0
  0
LINE
  5
276
330
8F
100
AcDbEntity
  8
0
  6
Continuous
 62
     7
100
AcDbLine
 10
8.17065207507471
 20
121.7194167356254
 30
0.0
 11
8.13749088663008
 21
131.2193588583753
 31
0.0
  0
LINE
  5
277
330
8F
100
AcDbEntity
  8
0
  6
Continuous
 62
     7
100
AcDbLine
 10
14.40824671550409
 20
131.2412480144401
 30
0.0
 11
14.31242833415618
 21
158.6910807796455
 31
0.0
  0
LINE
  5
278
330
8F
100
AcDbEntity
  8
0
  6
Continuous
 62
     7
100
AcDbLine
 10
-30.49519057957703
 20
160.7955390913058
 30
0.0
 11
-30.39148034756626
 21
131.0848668310381
 31
0.0
  0
LINE
  5
279
330
8F
100
AcDbEntity
  8
0
  6
Continuous
 62
     7
100
AcDbLine
 10
-30.49519057957703
 20
160.7955390913058
 30
0.0
 11
-29.41007935026577
 21
160.7993268594305
 31
0.0
  0
LINE
  5
27A
330
8F
100
AcDbEntity
  8
0
  6
Continuous
 62
     7
100
AcDbLine
 10
-29.41007935026577
 20
160.7993268594305
 30
0.0
 11
-29.39295854695293
 21
177.3503000788515
 31
0.0
  0
LINE
  5
27B
330
8F
100
AcDbEntity
  8
0
  6
Continuous
 62
     7
100
AcDbLine
 10
-30.55288724089446
 20
177.371746960405
 30
0.0
 11
-29.39295854695293
 21
177.3503000788515
 31
0.0
  0
LINE
  5
27C
330
8F
100
AcDbEntity
  8
0
  6
Continuous
 62
     7
100
AcDbLine
 10
-30.55288724089446
 20
177.371746960405
 30
0.0
 11
-30.55809090105816
 21
178.8624797326639
 31
0.0
  0
LINE
  5
27D
330
8F
100
AcDbEntity
  8
0
  6
Continuous
 62
     7
100
AcDbLine
 10
14.25194603543505
 20
176.0653117397577
 30
0.0
 11
14.25713545012023
 21
174.5786599799083
 31
0.0
  0
LINE
  5
27E
330
8F
100
AcDbEntity
  8
0
  6
Continuous
 62
     7
100
AcDbLine
 10
-9.09804408612898
 20
182.3630277981544
 30
0.0
 11
-6.42488192215172
 21
179.7084629851906
 31
0.0
  0
LINE
  5
27F
330
8F
100
AcDbEntity
  8
0
  6
Continuous
 62
     7
100
AcDbLine
 10
-18.15606526740942
 20
129.3275656939227
 30
0.0
 11
-21.75604333497746
 21
129.3149993488279
 31
0.0
  0
LINE
  5
280
330
8F
100
AcDbEntity
  8
0
  6
Continuous
 62
     7
100
AcDbLine
 10
-18.15208529165695
 20
129.3275795867153
 30
0.0
 11
-18.15606526740942
 21
129.3275656939227
 31
0.0
  0
LINE
  5
281
330
8F
100
AcDbEntity
  8
0
  6
Continuous
 62
     7
100
AcDbLine
 10
-18.15208529165695
 20
129.3275795867153
 30
0.0
 11
-18.15836846420434
 21
131.1275686205003
 31
0.0
  0
LINE
  5
282
330
8F
100
AcDbEntity
  8
0
  6
Continuous
 62
     7
100
AcDbLine
 10
-18.15606526740942
 20
129.3275656939227
 30
0.0
 11
-18.16234843995682
 21
131.1275547277076
 31
0.0
  0
LINE
  5
283
330
8F
100
AcDbEntity
  8
0
  6
Continuous
 62
     7
100
AcDbLine
 10
-21.76232650752486
 20
131.1149883826128
 30
0.0
 11
-21.75604333497746
 21
129.3149993488279
 31
0.0
  0
LINE
  5
284
330
8F
100
AcDbEntity
  8
0
  6
Continuous
 62
     7
100
AcDbLine
 10
-30.39148034756626
 20
131.0848668310381
 30
0.0
 11
13.10825463554898
 21
131.2367101676003
 31
0.0
  0
LINE
  5
285
330
8F
100
AcDbEntity
  8
0
  6
Continuous
 62
     7
100
AcDbLine
 10
14.40824671550409
 20
131.2412480144401
 30
0.0
 11
13.10825463554898
 21
131.2367101676003
 31
0.0
  0
ARC
  5
286
330
8F
100
AcDbEntity
  8
0
  6
Continuous
 62
     7
100
AcDbCircle
 10
-7.92010762542442
 20
110.7246656114864
 30
0.0
 40
69.00000000000006
100
AcDbArc
 50
71.25637453727693
 51
88.758306832578
  0
ARC
  5
287
330
8F
100
AcDbEntity
  8
0
  6
Continuous
 62
     7
100
AcDbCircle
 10
-9.4503611911108
 20
182.0082424298862
 30
0.0
 40
0.4999999999999815
100
AcDbArc
 50
45.19999999999396
 51
91.22978686311173
  0
ARC
  5
288
330
8F
100
AcDbEntity
  8
0
  6
Continuous
 62
     7
100
AcDbCircle
 10
-7.92010762542442
 20
110.7246656114864
 30
0.0
 40
71.80000000000005
100
AcDbArc
 50
91.22978686310975
 51
108.3784573252214
  0
ENDBLK
  5
91
330
8F
100
AcDbEntity
  8
0
100
AcDbBlockEnd
  0
BLOCK
  5
94
330
92
100
AcDbEntity
  8
0
100
AcDbBlockBegin
  2
Rckans2
 70
     0
 10
-5.616296
 20
156.834919
 30
0.0
  3
Rckans2
  1

  0
INSERT
  5
93
330
92
100
AcDbEntity
  8
0
100
AcDbBlockReference
  2
PLT_SEC_T3_230_P-select__3
 10
-30.55809090105816
 20
121.7194167356254
 30
0.0
  0
MTEXT
  5
289
330
92
100
AcDbEntity
  8
1
 62
     6
100
AcDbMText
 10
-8.07492119488518
 20
116.7194179036871
 30
0.0
 40
5.0
 41
0.0
 71
     2
 72
     1
  1
 
  7
CONVERTER_11
 73
     1
 44
1.32052821128451
  0
ENDBLK
  5
95
330
92
100
AcDbEntity
  8
0
100
AcDbBlockEnd
  0
BLOCK
  5
97
330
96
100
AcDbEntity
  8
0
100
AcDbBlockBegin
  2
PLT_SEC_T3_230_P-select__4
 70
     0
 10
-142.0245427155041
 20
121.7194167356254
 30
0.0
  3
PLT_SEC_T3_230_P-select__4
  1

  0
LINE
  5
28A
330
96
100
AcDbEntity
  8
0
  6
Continuous
 62
     7
100
AcDbLine
 10
-141.8734314501202
 20
174.5786599799082
 30
0.0
 11
-141.868242035435
 21
176.0653117397577
 31
0.0
  0
LINE
  5
28B
330
96
100
AcDbEntity
  8
0
  6
Continuous
 62
     7
100
AcDbLine
 10
-141.8734314501202
 20
174.5786599799082
 30
0.0
 11
-140.7270250885422
 21
174.5494557978554
 31
0.0
  0
LINE
  5
28C
330
96
100
AcDbEntity
  8
0
  6
Continuous
 62
     7
100
AcDbLine
 10
-141.9287243341562
 20
158.6910807796455
 30
0.0
 11
-141.9218287605424
 21
160.666509083236
 31
0.0
  0
LINE
  5
28D
330
96
100
AcDbEntity
  8
0
  6
Continuous
 62
     7
100
AcDbLine
 10
-140.6287322542011
 20
158.6865429328057
 30
0.0
 11
-141.9287243341562
 21
158.6910807796455
 31
0.0
  0
LINE
  5
28E
330
96
100
AcDbEntity
  8
0
  6
Continuous
 62
     7
100
AcDbLine
 10
-142.0245427155041
 20
131.2412480144401
 30
0.0
 11
-141.9287243341562
 21
158.6910807796455
 31
0.0
  0
LINE
  5
28F
330
96
100
AcDbEntity
  8
0
  6
Continuous
 62
     7
100
AcDbLine
 10
-142.0245427155041
 20
131.2412480144401
 30
0.0
 11
-140.724550635549
 21
131.2367101676003
 31
0.0
  0
LINE
  5
290
330
96
100
AcDbEntity
  8
0
  6
Continuous
 62
     7
100
AcDbLine
 10
-121.1914140778482
 20
179.7084629851906
 30
0.0
 11
-118.518251913871
 21
182.3630277981544
 31
0.0
  0
LINE
  5
291
330
96
100
AcDbEntity
  8
0
  6
Continuous
 62
     7
100
AcDbLine
 10
-105.864232640775
 20
129.3150132416205
 30
0.0
 11
-105.8579494682276
 21
131.1150022754055
 31
0.0
  0
LINE
  5
292
330
96
100
AcDbEntity
  8
0
  6
Continuous
 62
     7
100
AcDbLine
 10
-105.864232640775
 20
129.3150132416205
 30
0.0
 11
-109.464210708343
 21
129.3275795867153
 31
0.0
  0
LINE
  5
293
330
96
100
AcDbEntity
  8
0
  6
Continuous
 62
     7
100
AcDbLine
 10
-109.4579275357956
 20
131.1275686205003
 30
0.0
 11
-109.464210708343
 21
129.3275795867153
 31
0.0
  0
LINE
  5
294
330
96
100
AcDbEntity
  8
0
  6
Continuous
 62
     7
100
AcDbLine
 10
-105.8602526650225
 20
129.3149993488279
 30
0.0
 11
-105.8539694924751
 21
131.1149883826128
 31
0.0
  0
LINE
  5
295
330
96
100
AcDbEntity
  8
0
  6
Continuous
 62
     7
100
AcDbLine
 10
-105.8602526650225
 20
129.3149993488279
 30
0.0
 11
-105.864232640775
 21
129.3150132416205
 31
0.0
  0
LINE
  5
296
330
96
100
AcDbEntity
  8
0
  6
Continuous
 62
     7
100
AcDbLine
 10
-97.2248156524337
 20
131.0848668310381
 30
0.0
 11
-140.724550635549
 21
131.2367101676003
 31
0.0
  0
LINE
  5
297
330
96
100
AcDbEntity
  8
0
  6
Continuous
 62
     7
100
AcDbLine
 10
-97.05820509894181
 20
178.8624797326639
 30
0.0
 11
-97.0634087591055
 21
177.371746960405
 31
0.0
  0
LINE
  5
298
330
96
100
AcDbEntity
  8
0
  6
Continuous
 62
     7
100
AcDbLine
 10
-97.0634087591055
 20
177.371746960405
 30
0.0
 11
-98.22333745304704
 21
177.3503000788516
 31
0.0
  0
LINE
  5
299
330
96
100
AcDbEntity
  8
0
  6
Continuous
 62
     7
100
AcDbLine
 10
-98.22333745304704
 20
177.3503000788516
 30
0.0
 11
-98.20621664973419
 21
160.7993268594305
 31
0.0
  0
LINE
  5
29A
330
96
100
AcDbEntity
  8
0
  6
Continuous
 62
     7
100
AcDbLine
 10
-133.880327412836
 20
123.6127729224863
 30
0.0
 11
-135.7803158373858
 21
123.6194051601752
 31
0.0
  0
LINE
  5
29B
330
96
100
AcDbEntity
  8
0
  6
Continuous
 62
     7
100
AcDbLine
 10
-133.8537984620803
 20
131.2127266206864
 30
0.0
 11
-133.880327412836
 21
123.6127729224863
 31
0.0
  0
LINE
  5
29C
330
96
100
AcDbEntity
  8
0
  6
Continuous
 62
     7
100
AcDbLine
 10
-135.7803158373858
 20
123.6194051601752
 30
0.0
 11
-135.7869480750747
 21
121.7194167356254
 31
0.0
  0
LINE
  5
29D
330
96
100
AcDbEntity
  8
0
  6
Continuous
 62
     7
100
AcDbLine
 10
-135.7537868866301
 20
131.2193588583753
 30
0.0
 11
-135.7803158373858
 21
123.6194051601752
 31
0.0
  0
LINE
  5
29E
330
96
100
AcDbEntity
  8
0
  6
Continuous
 62
     7
100
AcDbLine
 10
-139.3869261426427
 20
121.7319830807202
 30
0.0
 11
-139.3537649541981
 21
131.2319252034701
 31
0.0
  0
LINE
  5
29F
330
96
100
AcDbEntity
  8
0
  6
Continuous
 62
     7
100
AcDbLine
 10
-135.7869480750747
 20
121.7194167356254
 30
0.0
 11
-139.3869261426427
 21
121.7319830807202
 31
0.0
  0
LINE
  5
2A0
330
96
100
AcDbEntity
  8
0
  6
Continuous
 62
     7
100
AcDbLine
 10
-140.724550635549
 20
131.2367101676003
 30
0.0
 11
-140.6287322542011
 21
158.6865429328057
 31
0.0
  0
LINE
  5
2A1
330
96
100
AcDbEntity
  8
0
  6
Continuous
 62
     7
100
AcDbLine
 10
-140.7270250885422
 20
174.5494557978554
 30
0.0
 11
-140.8360521594615
 21
160.9481336616653
 31
0.0
  0
LINE
  5
2A2
330
96
100
AcDbEntity
  8
0
  6
Continuous
 62
     7
100
AcDbLine
 10
-97.2248156524337
 20
131.0848668310381
 30
0.0
 11
-97.12110542042294
 21
160.7955390913058
 31
0.0
  0
LINE
  5
2A3
330
96
100
AcDbEntity
  8
0
  6
Continuous
 62
     7
100
AcDbLine
 10
-98.20621664973419
 20
160.7993268594305
 30
0.0
 11
-97.12110542042294
 21
160.7955390913058
 31
0.0
  0
LINE
  5
2A4
330
96
100
AcDbEntity
  8
0
  6
Continuous
 62
     7
100
AcDbLine
 10
-141.9218287605424
 20
160.666509083236
 30
0.0
 11
-140.8360521594615
 21
160.9481336616653
 31
0.0
  0
ARC
  5
2A5
330
96
100
AcDbEntity
  8
0
  6
Continuous
 62
     7
100
AcDbCircle
 10
-119.6961883745755
 20
110.7246656114864
 30
0.0
 40
69.00000000000004
100
AcDbArc
 50
91.241693167422
 51
108.7436254627231
  0
ARC
  5
2A6
330
96
100
AcDbEntity
  8
0
  6
Continuous
 62
     7
100
AcDbCircle
 10
-118.1659348088892
 20
182.0082424298862
 30
0.0
 40
0.5000000000000503
100
AcDbArc
 50
88.77021313688667
 51
134.8000000000037
  0
ARC
  5
2A7
330
96
100
AcDbEntity
  8
0
  6
Continuous
 62
     7
100
AcDbCircle
 10
-119.6961883745755
 20
110.7246656114864
 30
0.0
 40
71.80000000000004
100
AcDbArc
 50
71.6215426747786
 51
88.77021313689032
  0
ENDBLK
  5
98
330
96
100
AcDbEntity
  8
0
100
AcDbBlockEnd
  0
BLOCK
  5
9B
330
99
100
AcDbEntity
  8
0
100
AcDbBlockBegin
  2
Vordans2
 70
     0
 10
-121.9999999999999
 20
156.834919
 30
0.0
  3
Vordans2
  1

  0
INSERT
  5
9A
330
99
100
AcDbEntity
  8
0
100
AcDbBlockReference
  2
PLT_SEC_T3_230_P-select__4
 10
-142.0245427155041
 20
121.7194167356254
 30
0.0
  0
MTEXT
  5
2A8
330
99
100
AcDbEntity
  8
1
 62
     6
100
AcDbMText
 10
-119.54137420654
 20
116.7194179036871
 30
0.0
 40
5.0
 41
0.0
 71
     2
 72
     1
  1
 
  7
CONVERTER_11
 73
     1
 44
1.32052821128451
  0
DIMENSION
  5
2B3
330
99
100
AcDbEntity
  8
1
100
AcDbDimension
  2
*D18
 10
-142.0869278761832
 20
113.3692885471408
 30
0.0
 11
-120.6321778368139
 21
116.7194179036871
 31
0.0
 70
    32
  1
<>
 71
     5
 42
-1.0
 53
-0.19999999999999
  3
ME10_DIM_11
100
AcDbAlignedDimension
 13
-97.2248156524337
 23
131.0848668310381
 33
0.0
 14
-142.0245427155041
 24
131.2412480144401
 34
0.0
 50
-0.19999999999999
100
AcDbRotatedDimension
  0
DIMENSION
  5
2BE
330
99
100
AcDbEntity
  8
1
100
AcDbDimension
  2
*D19
 10
-150.724550635549
 20
131.2367101676003
 30
0.0
 11
-154.149550635549
 21
156.203922236571
 31
0.0
 70
    32
  1
51,45
 71
     5
 42
-1.0
 53
90.0
  3
ME10_DIM_12
100
AcDbAlignedDimension
 13
-118.1552037179657
 23
182.5081272603098
 33
0.0
 14
-140.724550635549
 24
131.2367101676003
 34
0.0
 50
90.0
100
AcDbRotatedDimension
  0
DIMENSION
  5
2C9
330
99
100
AcDbEntity
  8
1
100
AcDbDimension
  2
*D20
 10
-158.628507017304
 20
121.7194167356253
 30
0.0
 11
-162.053507017304
 21
155.437042729081
 31
0.0
 70
    32
  1
60,85
 71
     5
 42
-1.0
 53
90.0
  3
ME10_DIM_13
100
AcDbAlignedDimension
 13
-118.1552037179657
 23
182.5081272603098
 33
0.0
 14
-135.7869480750747
 24
121.7194167356254
 34
0.0
 50
90.0
100
AcDbRotatedDimension
  0
ENDBLK
  5
9C
330
99
100
AcDbEntity
  8
0
100
AcDbBlockEnd
  0
BLOCK
  5
9E
330
9D
100
AcDbEntity
  8
0
100
AcDbBlockBegin
  2
PLT_SEC_T3_230_P-select__5
 70
     0
 10
-209.5246564565084
 20
121.7194167356255
 30
0.0
  3
PLT_SEC_T3_230_P-select__5
  1

  0
LINE
  5
2CA
330
9D
100
AcDbEntity
  8
0
  6
Continuous
 62
     7
100
AcDbLine
 10
-195.5763709726945
 20
129.314999348828
 30
0.0
 11
-195.5763709726945
 21
131.0848668310382
 31
0.0
  0
LINE
  5
2CB
330
9D
100
AcDbEntity
  8
0
  6
Continuous
 62
     7
100
AcDbLine
 10
-195.5763709726945
 20
121.7194167356255
 30
0.0
 11
-195.5763709726945
 21
129.314999348828
 31
0.0
  0
LINE
  5
2CC
330
9D
100
AcDbEntity
  8
0
  6
Continuous
 62
     7
100
AcDbLine
 10
-195.5763709726945
 20
121.7194167356255
 30
0.0
 11
-196.3763709726945
 21
121.7194167356255
 31
0.0
  0
LINE
  5
2CD
330
9D
100
AcDbEntity
  8
0
  6
Continuous
 62
     7
100
AcDbLine
 10
-205.9763709726944
 20
121.7194167356255
 30
0.0
 11
-206.7763709726945
 21
121.7194167356255
 31
0.0
  0
LINE
  5
2CE
330
9D
100
AcDbEntity
  8
0
  6
Continuous
 62
     7
100
AcDbLine
 10
-205.9763709726945
 20
131.0848668310382
 30
0.0
 11
-205.9763709726945
 21
129.3150132416206
 31
0.0
  0
LINE
  5
2CF
330
9D
100
AcDbEntity
  8
0
  6
Continuous
 62
     7
100
AcDbLine
 10
-206.7763709726945
 20
129.3150132416206
 30
0.0
 11
-205.9763709726945
 21
129.3150132416206
 31
0.0
  0
LINE
  5
2D0
330
9D
100
AcDbEntity
  8
0
  6
Continuous
 62
     7
100
AcDbLine
 10
-206.7763709726945
 20
129.3150132416206
 30
0.0
 11
-206.7763709726945
 21
131.0848668310382
 31
0.0
  0
LINE
  5
2D1
330
9D
100
AcDbEntity
  8
0
  6
Continuous
 62
     7
100
AcDbLine
 10
-201.5763709726944
 20
131.0848668310382
 30
0.0
 11
-201.5763709726944
 21
123.6127729224864
 31
0.0
  0
LINE
  5
2D2
330
9D
100
AcDbEntity
  8
0
  6
Continuous
 62
     7
100
AcDbLine
 10
-200.7763709726944
 20
131.0848668310382
 30
0.0
 11
-200.7763709726944
 21
123.6127729224864
 31
0.0
  0
LINE
  5
2D3
330
9D
100
AcDbEntity
  8
0
  6
Continuous
 62
     7
100
AcDbLine
 10
-195.5763709726945
 20
129.314999348828
 30
0.0
 11
-196.3763709726945
 21
129.314999348828
 31
0.0
  0
LINE
  5
2D4
330
9D
100
AcDbEntity
  8
0
  6
Continuous
 62
     7
100
AcDbLine
 10
-196.3763709726945
 20
131.0848668310382
 30
0.0
 11
-196.3763709726945
 21
129.314999348828
 31
0.0
  0
LINE
  5
2D5
330
9D
100
AcDbEntity
  8
0
  6
Continuous
 62
     7
100
AcDbLine
 10
-196.3763709726945
 20
129.314999348828
 30
0.0
 11
-196.3763709726945
 21
121.7194167356255
 31
0.0
  0
LINE
  5
2D6
330
9D
100
AcDbEntity
  8
0
  6
Continuous
 62
     7
100
AcDbLine
 10
-200.7763709726944
 20
123.6127729224864
 30
0.0
 11
-201.5763709726944
 21
123.6127729224864
 31
0.0
  0
LINE
  5
2D7
330
9D
100
AcDbEntity
  8
0
  6
Continuous
 62
     7
100
AcDbLine
 10
-209.5246564565083
 20
131.0848668310382
 30
0.0
 11
-192.0245422257009
 21
131.0848668310382
 31
0.0
  0
LINE
  5
2D8
330
9D
100
AcDbEntity
  8
0
  6
Continuous
 62
     7
100
AcDbLine
 10
-206.7763709726945
 20
129.3150132416206
 30
0.0
 11
-206.7763709726945
 21
121.7194167356255
 31
0.0
  0
LINE
  5
2D9
330
9D
100
AcDbEntity
  8
0
  6
Continuous
 62
     7
100
AcDbLine
 10
-205.9763709726944
 20
121.7194167356255
 30
0.0
 11
-205.9763709726945
 21
129.3150132416206
 31
0.0
  0
LINE
  5
2DA
330
9D
100
AcDbEntity
  8
0
  6
Continuous
 62
     7
100
AcDbLine
 10
-192.0245422257009
 20
160.7993268594306
 30
0.0
 11
-209.5246564565083
 21
160.7993268594306
 31
0.0
  0
LINE
  5
2DB
330
9D
100
AcDbEntity
  8
0
  6
Continuous
 62
     7
100
AcDbLine
 10
-192.0245422257009
 20
182.5082424298863
 30
0.0
 11
-192.0245422257009
 21
182.5081272603099
 31
0.0
  0
LINE
  5
2DC
330
9D
100
AcDbEntity
  8
0
  6
Continuous
 62
     7
100
AcDbLine
 10
-192.0245422257009
 20
177.3717469604051
 30
0.0
 11
-192.0245422257009
 21
177.3503000788516
 31
0.0
  0
LINE
  5
2DD
330
9D
100
AcDbEntity
  8
0
  6
Continuous
 62
     7
100
AcDbLine
 10
-192.0245422257009
 20
160.7955390913059
 30
0.0
 11
-192.0245422257009
 21
160.7993268594306
 31
0.0
  0
LINE
  5
2DE
330
9D
100
AcDbEntity
  8
0
  6
Continuous
 62
     7
100
AcDbLine
 10
-192.0245422257009
 20
160.7955390913059
 30
0.0
 11
-192.0245422257009
 21
131.0848668310382
 31
0.0
  0
LINE
  5
2DF
330
9D
100
AcDbEntity
  8
0
  6
Continuous
 62
     7
100
AcDbLine
 10
-192.0245422257009
 20
160.7993268594306
 30
0.0
 11
-192.0245422257009
 21
177.3503000788516
 31
0.0
  0
LINE
  5
2E0
330
9D
100
AcDbEntity
  8
0
  6
Continuous
 62
     7
100
AcDbLine
 10
-192.0245422257009
 20
160.7955390913059
 30
0.0
 11
-209.5246564565083
 21
160.7955390913059
 31
0.0
  0
LINE
  5
2E1
330
9D
100
AcDbEntity
  8
0
  6
Continuous
 62
     7
100
AcDbLine
 10
-209.5246564565084
 20
182.5082424298863
 30
0.0
 11
-192.0245422257009
 21
182.5082424298863
 31
0.0
  0
LINE
  5
2E2
330
9D
100
AcDbEntity
  8
0
  6
Continuous
 62
     7
100
AcDbLine
 10
-209.5246564565083
 20
160.7993268594306
 30
0.0
 11
-209.5246564565083
 21
160.7955390913059
 31
0.0
  0
LINE
  5
2E3
330
9D
100
AcDbEntity
  8
0
  6
Continuous
 62
     7
100
AcDbLine
 10
-209.5246564565083
 20
177.3717469604051
 30
0.0
 11
-209.5246564565083
 21
177.3503000788517
 31
0.0
  0
LINE
  5
2E4
330
9D
100
AcDbEntity
  8
0
  6
Continuous
 62
     7
100
AcDbLine
 10
-209.5246564565083
 20
177.3503000788517
 30
0.0
 11
-209.5246564565083
 21
160.7993268594306
 31
0.0
  0
LINE
  5
2E5
330
9D
100
AcDbEntity
  8
0
  6
Continuous
 62
     7
100
AcDbLine
 10
-209.5246564565083
 20
131.0848668310382
 30
0.0
 11
-209.5246564565083
 21
160.7955390913059
 31
0.0
  0
LINE
  5
2E6
330
9D
100
AcDbEntity
  8
0
  6
Continuous
 62
     7
100
AcDbLine
 10
-209.5246564565083
 20
177.3717469604051
 30
0.0
 11
-192.0245422257009
 21
177.3717469604051
 31
0.0
  0
LINE
  5
2E7
330
9D
100
AcDbEntity
  8
0
  6
Continuous
 62
     7
100
AcDbLine
 10
-192.0245422257009
 20
177.3717469604051
 30
0.0
 11
-192.0245422257009
 21
178.862479732664
 31
0.0
  0
LINE
  5
2E8
330
9D
100
AcDbEntity
  8
0
  6
Continuous
 62
     7
100
AcDbLine
 10
-209.5246564565083
 20
178.862479732664
 30
0.0
 11
-209.5246564565083
 21
177.3717469604051
 31
0.0
  0
LINE
  5
2E9
330
9D
100
AcDbEntity
  8
0
  6
Continuous
 62
     7
100
AcDbLine
 10
-192.0245422257009
 20
177.3503000788516
 30
0.0
 11
-209.5246564565083
 21
177.3503000788517
 31
0.0
  0
LINE
  5
2EA
330
9D
100
AcDbEntity
  8
0
  6
Continuous
 62
     7
100
AcDbLine
 10
-209.5246564565083
 20
182.5081272603099
 30
0.0
 11
-209.5246564565083
 21
178.862479732664
 31
0.0
  0
LINE
  5
2EB
330
9D
100
AcDbEntity
  8
0
  6
Continuous
 62
     7
100
AcDbLine
 10
-192.0245422257009
 20
182.5081272603099
 30
0.0
 11
-192.0245422257009
 21
178.862479732664
 31
0.0
  0
LINE
  5
2EC
330
9D
100
AcDbEntity
  8
0
  6
Continuous
 62
     2
100
AcDbLine
 10
-192.0245422257009
 20
182.5081272603099
 30
0.0
 11
-209.5246564565083
 21
182.5081272603099
 31
0.0
  0
LINE
  5
2ED
330
9D
100
AcDbEntity
  8
0
  6
Continuous
 62
     7
100
AcDbLine
 10
-204.2925029857099
 20
182.4973339861741
 30
0.0
 11
-197.2578359247974
 21
182.4973339861738
 31
0.0
  0
LINE
  5
2EE
330
9D
100
AcDbEntity
  8
0
  6
Continuous
 62
     7
100
AcDbLine
 10
-209.5246564565083
 20
178.862479732664
 30
0.0
 11
-192.0245422257009
 21
178.862479732664
 31
0.0
  0
LINE
  5
2EF
330
9D
100
AcDbEntity
  8
0
  6
Continuous
 62
     7
100
AcDbLine
 10
-204.2697261279727
 20
182.2617167972426
 30
0.0
 11
-197.2801955096492
 21
182.2617167972424
 31
0.0
  0
LINE
  5
2F0
330
9D
100
AcDbEntity
  8
0
  6
Continuous
 62
     7
100
AcDbLine
 10
-209.5246564565084
 20
182.5082424298863
 30
0.0
 11
-209.5246564565083
 21
182.5081272603099
 31
0.0
  0
SPLINE
  5
2F1
330
9D
100
AcDbEntity
  8
0
  6
Continuous
 62
     7
100
AcDbSpline
210
0.0
220
0.0
230
1.0
 70
  1064
 71
     3
 72
     9
 73
     5
 74
     3
 42
0.000000001
 43
0.0000000001
 44
0.00000001
 40
0.0
 40
0.0
 40
0.0
 40
0.0
 40
0.1486165037330957
 40
0.2366759859425651
 40
0.2366759859425651
 40
0.2366759859425651
 40
0.2366759859425651
 10
-197.2801955096492
 20
182.2617167972424
 30
0.0
 10
-197.2756141952246
 20
182.3110434261699
 30
0.0
 10
-197.2683183011117
 20
182.3895974759604
 30
0.0
 10
-197.2606784677191
 20
182.4681187569975
 30
0.0
 10
-197.2578359247974
 20
182.4973339861738
 30
0.0
 11
-197.2801955096492
 21
182.2617167972424
 31
0.0
 11
-197.2663159346552
 21
182.4096837617452
 31
0.0
 11
-197.2578359247974
 21
182.4973339861738
 31
0.0
  0
SPLINE
  5
2F2
330
9D
100
AcDbEntity
  8
0
  6
Continuous
 62
     7
100
AcDbSpline
210
0.0
220
0.0
230
1.0
 70
  1064
 71
     3
 72
     9
 73
     5
 74
     3
 42
0.000000001
 43
0.0000000001
 44
0.00000001
 40
0.0
 40
0.0
 40
0.0
 40
0.0
 40
0.0880797405481151
 40
0.236715949222091
 40
0.236715949222091
 40
0.236715949222091
 40
0.236715949222091
 10
-204.2925029857099
 20
182.4973339861741
 30
0.0
 10
-204.2895860144803
 20
182.4681192870776
 30
0.0
 10
-204.2817466210702
 20
182.3896042350377
 30
0.0
 10
-204.274362607405
 20
182.3110449346559
 30
0.0
 10
-204.2697261279727
 20
182.2617167972426
 30
0.0
 11
-204.2925029857099
 21
182.4973339861741
 31
0.0
 11
-204.2838151258309
 21
182.4096837620492
 31
0.0
 11
-204.2697261279727
 21
182.2617167972426
 31
0.0
  0
ENDBLK
  5
9F
330
9D
100
AcDbEntity
  8
0
100
AcDbBlockEnd
  0
BLOCK
  5
A2
330
A0
100
AcDbEntity
  8
0
100
AcDbBlockBegin
  2
SA_Rechts2
 70
     0
 10
-200.7439609999998
 20
156.8349190000001
 30
0.0
  3
SA_Rechts2
  1

  0
INSERT
  5
A1
330
A0
100
AcDbEntity
  8
0
100
AcDbBlockReference
  2
PLT_SEC_T3_230_P-select__5
 10
-209.5246564565084
 20
121.7194167356255
 30
0.0
  0
MTEXT
  5
2F3
330
A0
100
AcDbEntity
  8
1
 62
     6
100
AcDbMText
 10
-200.7745999940444
 20
116.7194179036871
 30
0.0
 40
5.0
 41
0.0
 71
     2
 72
     1
  1
 
  7
CONVERTER_11
 73
     1
 44
1.32052821128451
  0
ENDBLK
  5
A3
330
A0
100
AcDbEntity
  8
0
100
AcDbBlockEnd
  0
BLOCK
  5
A5
330
A4
100
AcDbEntity
  8
0
100
AcDbBlockBegin
  2
PLT_SEC_T3_230_P-select__6
 70
     0
 10
-72.05820577429878
 20
121.7194167356254
 30
0.0
  3
PLT_SEC_T3_230_P-select__6
  1

  0
LINE
  5
2F4
330
A4
100
AcDbEntity
  8
0
  6
Continuous
 62
     7
100
AcDbLine
 10
-54.55809154349129
 20
182.3630277981545
 30
0.0
 11
-54.55809154349129
 21
182.5082424298863
 31
0.0
  0
LINE
  5
2F5
330
A4
100
AcDbEntity
  8
0
  6
Continuous
 62
     7
100
AcDbLine
 10
-72.05820577429878
 20
182.3630277981545
 30
0.0
 11
-72.05820577429878
 21
182.5082424298863
 31
0.0
  0
LINE
  5
2F6
330
A4
100
AcDbEntity
  8
0
  6
Continuous
 62
     2
100
AcDbLine
 10
-72.05820577429878
 20
182.3630277981545
 30
0.0
 11
-54.55809154349129
 21
182.3630277981545
 31
0.0
  0
LINE
  5
2F7
330
A4
100
AcDbEntity
  8
0
  6
Continuous
 62
     7
100
AcDbLine
 10
-54.55809154349129
 20
182.5082424298863
 30
0.0
 11
-72.05820577429878
 21
182.5082424298863
 31
0.0
  0
LINE
  5
2F8
330
A4
100
AcDbEntity
  8
0
  6
Continuous
 62
     7
100
AcDbLine
 10
-57.30637702730519
 20
121.7194167356254
 30
0.0
 11
-57.30637702730519
 21
121.7319830807202
 31
0.0
  0
LINE
  5
2F9
330
A4
100
AcDbEntity
  8
0
  6
Continuous
 62
     7
100
AcDbLine
 10
-57.30637702730519
 20
121.7319830807202
 30
0.0
 11
-57.30637702730519
 21
131.237756818702
 31
0.0
  0
LINE
  5
2FA
330
A4
100
AcDbEntity
  8
0
  6
Continuous
 62
     7
100
AcDbLine
 10
-58.1063770273052
 20
121.7319830807202
 30
0.0
 11
-57.30637702730519
 21
121.7319830807202
 31
0.0
  0
LINE
  5
2FB
330
A4
100
AcDbEntity
  8
0
  6
Continuous
 62
     7
100
AcDbLine
 10
-58.1063770273052
 20
131.2377566061055
 30
0.0
 11
-58.1063770273052
 21
121.7319830807202
 31
0.0
  0
LINE
  5
2FC
330
A4
100
AcDbEntity
  8
0
  6
Continuous
 62
     7
100
AcDbLine
 10
-54.55809154349129
 20
158.6910807796455
 30
0.0
 11
-54.55809154349129
 21
160.6665090832361
 31
0.0
  0
LINE
  5
2FD
330
A4
100
AcDbEntity
  8
0
  6
Continuous
 62
     7
100
AcDbLine
 10
-54.55809154349129
 20
158.6910807796455
 30
0.0
 11
-55.55809154349129
 21
158.6910807796455
 31
0.0
  0
LINE
  5
2FE
330
A4
100
AcDbEntity
  8
0
  6
Continuous
 62
     7
100
AcDbLine
 10
-54.55809154349129
 20
174.5786599799083
 30
0.0
 11
-54.55809154349129
 21
176.0653117397577
 31
0.0
  0
LINE
  5
2FF
330
A4
100
AcDbEntity
  8
0
  6
Continuous
 62
     7
100
AcDbLine
 10
-54.55809154349129
 20
176.0653117397577
 30
0.0
 11
-54.55809154349129
 21
179.7084629851906
 31
0.0
  0
LINE
  5
300
330
A4
100
AcDbEntity
  8
0
  6
Continuous
 62
     7
100
AcDbLine
 10
-54.55809154349129
 20
160.6665090832361
 30
0.0
 11
-54.55809154349129
 21
160.9481336616653
 31
0.0
  0
LINE
  5
301
330
A4
100
AcDbEntity
  8
0
  6
Continuous
 62
     7
100
AcDbLine
 10
-54.55809154349129
 20
174.5494557978554
 30
0.0
 11
-54.55809154349129
 21
160.9481336616653
 31
0.0
  0
LINE
  5
302
330
A4
100
AcDbEntity
  8
0
  6
Continuous
 62
     7
100
AcDbLine
 10
-55.55809154349129
 20
158.6865429328057
 30
0.0
 11
-55.55809154349129
 21
158.6910807796455
 31
0.0
  0
LINE
  5
303
330
A4
100
AcDbEntity
  8
0
  6
Continuous
 62
     7
100
AcDbLine
 10
-56.57514856258459
 20
131.2377570130228
 30
0.0
 11
-55.25809154349139
 21
131.2331596260751
 31
0.0
  0
LINE
  5
304
330
A4
100
AcDbEntity
  8
0
  6
Continuous
 62
     7
100
AcDbLine
 10
-55.25809154349139
 20
131.2331596260751
 30
0.0
 11
-55.25809154349139
 21
131.0883574751179
 31
0.0
  0
LINE
  5
305
330
A4
100
AcDbEntity
  8
0
  6
Continuous
 62
     7
100
AcDbLine
 10
-54.55809154349129
 20
131.0848668310381
 30
0.0
 11
-54.55809154349129
 21
131.2367101676003
 31
0.0
  0
LINE
  5
306
330
A4
100
AcDbEntity
  8
0
  6
Continuous
 62
     7
100
AcDbLine
 10
-58.1063770273052
 20
121.7319830807202
 30
0.0
 11
-58.1063770273052
 21
121.7194167356254
 31
0.0
  0
LINE
  5
307
330
A4
100
AcDbEntity
  8
0
  6
Continuous
 62
     7
100
AcDbLine
 10
-58.1063770273052
 20
121.7194167356254
 30
0.0
 11
-57.30637702730519
 21
121.7194167356254
 31
0.0
  0
LINE
  5
308
330
A4
100
AcDbEntity
  8
0
  6
Continuous
 62
     7
100
AcDbLine
 10
-54.55809154349129
 20
179.7084629851906
 30
0.0
 11
-54.55809154349129
 21
182.3630277981545
 31
0.0
  0
LINE
  5
309
330
A4
100
AcDbEntity
  8
0
  6
Continuous
 62
     7
100
AcDbLine
 10
-54.55809154349129
 20
179.7084629851906
 30
0.0
 11
-72.05820577429878
 21
179.7084629851906
 31
0.0
  0
LINE
  5
30A
330
A4
100
AcDbEntity
  8
0
  6
Continuous
 62
     7
100
AcDbLine
 10
-63.30637702730519
 20
131.0848668310381
 30
0.0
 11
-67.7063770273052
 21
131.0848668310381
 31
0.0
  0
LINE
  5
30B
330
A4
100
AcDbEntity
  8
0
  6
Continuous
 62
     7
100
AcDbLine
 10
-54.55809154349129
 20
131.0848668310381
 30
0.0
 11
-57.30637702730519
 21
131.0848668310381
 31
0.0
  0
LINE
  5
30C
330
A4
100
AcDbEntity
  8
0
  6
Continuous
 62
     7
100
AcDbLine
 10
-68.50637702730509
 20
131.0848668310381
 30
0.0
 11
-72.05820577429878
 21
131.0848668310381
 31
0.0
  0
LINE
  5
30D
330
A4
100
AcDbEntity
  8
0
  6
Continuous
 62
     7
100
AcDbLine
 10
-54.55809154349129
 20
131.2367101676003
 30
0.0
 11
-55.55809154349129
 21
131.2367101676003
 31
0.0
  0
LINE
  5
30E
330
A4
100
AcDbEntity
  8
0
  6
Continuous
 62
     7
100
AcDbLine
 10
-54.55809154349129
 20
174.5494557978554
 30
0.0
 11
-72.05820577429878
 21
174.5494557978554
 31
0.0
  0
LINE
  5
30F
330
A4
100
AcDbEntity
  8
0
  6
Continuous
 62
     7
100
AcDbLine
 10
-72.05820577429878
 20
160.9481336616653
 30
0.0
 11
-54.55809154349129
 21
160.9481336616653
 31
0.0
  0
LINE
  5
310
330
A4
100
AcDbEntity
  8
0
  6
Continuous
 62
     7
100
AcDbLine
 10
-54.55809154349129
 20
160.6665090832361
 30
0.0
 11
-72.05820577429878
 21
160.6665090832361
 31
0.0
  0
LINE
  5
311
330
A4
100
AcDbEntity
  8
0
  6
Continuous
 62
     7
100
AcDbLine
 10
-58.1063770273052
 20
131.0848668310381
 30
0.0
 11
-62.50637702730521
 21
131.0848668310381
 31
0.0
  0
LINE
  5
312
330
A4
100
AcDbEntity
  8
0
  6
Continuous
 62
     7
100
AcDbLine
 10
-54.55809154349129
 20
176.0653117397577
 30
0.0
 11
-72.05820577429878
 21
176.0653117397577
 31
0.0
  0
LINE
  5
313
330
A4
100
AcDbEntity
  8
0
  6
Continuous
 62
     7
100
AcDbLine
 10
-72.05820577429878
 20
176.0653117397577
 30
0.0
 11
-72.05820577429878
 21
174.5786599799083
 31
0.0
  0
LINE
  5
314
330
A4
100
AcDbEntity
  8
0
  6
Continuous
 62
     7
100
AcDbLine
 10
-72.05820577429878
 20
158.6910807796455
 30
0.0
 11
-72.05820577429878
 21
158.6865429328057
 31
0.0
  0
LINE
  5
315
330
A4
100
AcDbEntity
  8
0
  6
Continuous
 62
     7
100
AcDbLine
 10
-70.04205976943041
 20
131.2377534342497
 30
0.0
 11
-56.57514856258459
 21
131.2377570130228
 31
0.0
  0
LINE
  5
316
330
A4
100
AcDbEntity
  8
0
  6
Continuous
 62
     7
100
AcDbLine
 10
-54.55809154349129
 20
174.5786599799083
 30
0.0
 11
-72.05820577429878
 21
174.5786599799083
 31
0.0
  0
LINE
  5
317
330
A4
100
AcDbEntity
  8
0
  6
Continuous
 62
     7
100
AcDbLine
 10
-68.50637702730509
 20
121.7194167356254
 30
0.0
 11
-67.7063770273052
 21
121.7194167356254
 31
0.0
  0
LINE
  5
318
330
A4
100
AcDbEntity
  8
0
  6
Continuous
 62
     7
100
AcDbLine
 10
-68.50637702730509
 20
121.7319830807202
 30
0.0
 11
-68.50637702730509
 21
121.7194167356254
 31
0.0
  0
LINE
  5
319
330
A4
100
AcDbEntity
  8
0
  6
Continuous
 62
     7
100
AcDbLine
 10
-67.7063770273052
 20
121.7194167356254
 30
0.0
 11
-67.7063770273052
 21
121.7319830807202
 31
0.0
  0
LINE
  5
31A
330
A4
100
AcDbEntity
  8
0
  6
Continuous
 62
     7
100
AcDbLine
 10
-67.7063770273052
 20
121.7319830807202
 30
0.0
 11
-67.7063770273052
 21
131.2377540549473
 31
0.0
  0
LINE
  5
31B
330
A4
100
AcDbEntity
  8
0
  6
Continuous
 62
     7
100
AcDbLine
 10
-68.50637702730509
 20
121.7319830807202
 30
0.0
 11
-68.50637702730509
 21
131.2377538423507
 31
0.0
  0
LINE
  5
31C
330
A4
100
AcDbEntity
  8
0
  6
Continuous
 62
     7
100
AcDbLine
 10
-68.50637702730509
 20
121.7319830807202
 30
0.0
 11
-67.7063770273052
 21
121.7319830807202
 31
0.0
  0
LINE
  5
31D
330
A4
100
AcDbEntity
  8
0
  6
Continuous
 62
     7
100
AcDbLine
 10
-72.05820577429878
 20
182.3630277981545
 30
0.0
 11
-72.05820577429878
 21
179.7084629851906
 31
0.0
  0
LINE
  5
31E
330
A4
100
AcDbEntity
  8
0
  6
Continuous
 62
     7
100
AcDbLine
 10
-72.05820577429878
 20
176.0653117397577
 30
0.0
 11
-72.05820577429878
 21
179.7084629851906
 31
0.0
  0
LINE
  5
31F
330
A4
100
AcDbEntity
  8
0
  6
Continuous
 62
     7
100
AcDbLine
 10
-72.05820577429878
 20
131.0848668310381
 30
0.0
 11
-72.05820577429878
 21
131.2367101676003
 31
0.0
  0
LINE
  5
320
330
A4
100
AcDbEntity
  8
0
  6
Continuous
 62
     7
100
AcDbLine
 10
-63.30637702730519
 20
123.6127729224863
 30
0.0
 11
-62.50637702730521
 21
123.6127729224863
 31
0.0
  0
LINE
  5
321
330
A4
100
AcDbEntity
  8
0
  6
Continuous
 62
     7
100
AcDbLine
 10
-62.50637702730521
 20
123.6127729224863
 30
0.0
 11
-62.50637702730521
 21
123.63197150527
 31
0.0
  0
LINE
  5
322
330
A4
100
AcDbEntity
  8
0
  6
Continuous
 62
     7
100
AcDbLine
 10
-63.30637702730519
 20
123.63197150527
 30
0.0
 11
-63.30637702730519
 21
123.6127729224863
 31
0.0
  0
LINE
  5
323
330
A4
100
AcDbEntity
  8
0
  6
Continuous
 62
     7
100
AcDbLine
 10
-54.55809154349129
 20
158.6865429328057
 30
0.0
 11
-54.55809154349129
 21
158.6910807796455
 31
0.0
  0
LINE
  5
324
330
A4
100
AcDbEntity
  8
0
  6
Continuous
 62
     7
100
AcDbLine
 10
-55.55809154349129
 20
158.6865429328057
 30
0.0
 11
-54.55809154349129
 21
158.6865429328057
 31
0.0
  0
LINE
  5
325
330
A4
100
AcDbEntity
  8
0
  6
Continuous
 62
     7
100
AcDbLine
 10
-63.30637702730519
 20
123.63197150527
 30
0.0
 11
-63.30637702730519
 21
131.2377552242281
 31
0.0
  0
LINE
  5
326
330
A4
100
AcDbEntity
  8
0
  6
Continuous
 62
     7
100
AcDbLine
 10
-63.30637702730519
 20
123.63197150527
 30
0.0
 11
-62.50637702730521
 21
123.63197150527
 31
0.0
  0
LINE
  5
327
330
A4
100
AcDbEntity
  8
0
  6
Continuous
 62
     7
100
AcDbLine
 10
-54.55809154349129
 20
174.5786599799083
 30
0.0
 11
-54.55809154349129
 21
174.5494557978554
 31
0.0
  0
LINE
  5
328
330
A4
100
AcDbEntity
  8
0
  6
Continuous
 62
     7
100
AcDbLine
 10
-62.50637702730521
 20
123.63197150527
 30
0.0
 11
-62.50637702730521
 21
131.2377554368246
 31
0.0
  0
LINE
  5
329
330
A4
100
AcDbEntity
  8
0
  6
Continuous
 62
     7
100
AcDbLine
 10
-54.55809154349129
 20
131.2367101676003
 30
0.0
 11
-54.55809154349129
 21
158.6865429328057
 31
0.0
  0
LINE
  5
32A
330
A4
100
AcDbEntity
  8
0
  6
Continuous
 62
     7
100
AcDbLine
 10
-71.35809154349138
 20
131.2331596260751
 30
0.0
 11
-71.35809154349138
 21
131.0883574751179
 31
0.0
  0
LINE
  5
32B
330
A4
100
AcDbEntity
  8
0
  6
Continuous
 62
     7
100
AcDbLine
 10
-72.05820577429878
 20
131.2367101676003
 30
0.0
 11
-72.05820577429878
 21
158.6865429328057
 31
0.0
  0
LINE
  5
32C
330
A4
100
AcDbEntity
  8
0
  6
Continuous
 62
     7
100
AcDbLine
 10
-55.55809154349129
 20
131.2412480144401
 30
0.0
 11
-55.55809154349129
 21
131.2367101676003
 31
0.0
  0
LINE
  5
32D
330
A4
100
AcDbEntity
  8
0
  6
Continuous
 62
     7
100
AcDbLine
 10
-71.0580915434914
 20
131.2412480144401
 30
0.0
 11
-71.0580915434914
 21
131.2367101676003
 31
0.0
  0
LINE
  5
32E
330
A4
100
AcDbEntity
  8
0
  6
Continuous
 62
     7
100
AcDbLine
 10
-67.7063770273052
 20
131.0883574751179
 30
0.0
 11
-63.30637702730519
 21
131.0883574751179
 31
0.0
  0
LINE
  5
32F
330
A4
100
AcDbEntity
  8
0
  6
Continuous
 62
     7
100
AcDbLine
 10
-57.30637702730519
 20
131.0883574751179
 30
0.0
 11
-55.25809154349139
 21
131.0883574751179
 31
0.0
  0
LINE
  5
330
330
A4
100
AcDbEntity
  8
0
  6
Continuous
 62
     7
100
AcDbLine
 10
-71.35809154349138
 20
131.0883574751179
 30
0.0
 11
-68.50637702730509
 21
131.0883574751179
 31
0.0
  0
LINE
  5
331
330
A4
100
AcDbEntity
  8
0
  6
Continuous
 62
     7
100
AcDbLine
 10
-62.50637702730521
 20
131.0883574751179
 30
0.0
 11
-58.1063770273052
 21
131.0883574751179
 31
0.0
  0
LINE
  5
332
330
A4
100
AcDbEntity
  8
0
  6
Continuous
 62
     7
100
AcDbLine
 10
-72.05820577429878
 20
131.2367101676003
 30
0.0
 11
-71.0580915434914
 21
131.2367101676003
 31
0.0
  0
LINE
  5
333
330
A4
100
AcDbEntity
  8
0
  6
Continuous
 62
     7
100
AcDbLine
 10
-70.04205976943041
 20
131.2377534342497
 30
0.0
 11
-71.35809154349138
 21
131.2331596260751
 31
0.0
  0
LINE
  5
334
330
A4
100
AcDbEntity
  8
0
  6
Continuous
 62
     7
100
AcDbLine
 10
-55.55809154349129
 20
131.2412480144401
 30
0.0
 11
-71.0580915434914
 21
131.2412480144401
 31
0.0
  0
LINE
  5
335
330
A4
100
AcDbEntity
  8
0
  6
Continuous
 62
     7
100
AcDbLine
 10
-71.0580915434914
 20
158.6865429328057
 30
0.0
 11
-71.0580915434914
 21
158.6910807796455
 31
0.0
  0
LINE
  5
336
330
A4
100
AcDbEntity
  8
0
  6
Continuous
 62
     7
100
AcDbLine
 10
-71.0580915434914
 20
158.6865429328057
 30
0.0
 11
-72.05820577429878
 21
158.6865429328057
 31
0.0
  0
LINE
  5
337
330
A4
100
AcDbEntity
  8
0
  6
Continuous
 62
     7
100
AcDbLine
 10
-71.0580915434914
 20
158.6910807796455
 30
0.0
 11
-72.05820577429878
 21
158.6910807796455
 31
0.0
  0
LINE
  5
338
330
A4
100
AcDbEntity
  8
0
  6
Continuous
 62
     7
100
AcDbLine
 10
-72.05820577429878
 20
160.6665090832361
 30
0.0
 11
-72.05820577429878
 21
160.9481336616653
 31
0.0
  0
LINE
  5
339
330
A4
100
AcDbEntity
  8
0
  6
Continuous
 62
     7
100
AcDbLine
 10
-72.05820577429878
 20
174.5494557978554
 30
0.0
 11
-72.05820577429878
 21
174.5786599799083
 31
0.0
  0
LINE
  5
33A
330
A4
100
AcDbEntity
  8
0
  6
Continuous
 62
     7
100
AcDbLine
 10
-72.05820577429878
 20
158.6910807796455
 30
0.0
 11
-72.05820577429878
 21
160.6665090832361
 31
0.0
  0
LINE
  5
33B
330
A4
100
AcDbEntity
  8
0
  6
Continuous
 62
     7
100
AcDbLine
 10
-72.05820577429878
 20
174.5494557978554
 30
0.0
 11
-72.05820577429878
 21
160.9481336616653
 31
0.0
  0
LINE
  5
33C
330
A4
100
AcDbEntity
  8
0
  6
Continuous
 62
     7
100
AcDbLine
 10
-71.0580915434914
 20
131.2412480144401
 30
0.0
 11
-71.0580915434914
 21
158.6865429328057
 31
0.0
  0
LINE
  5
33D
330
A4
100
AcDbEntity
  8
0
  6
Continuous
 62
     7
100
AcDbLine
 10
-55.55809154349129
 20
131.2412480144401
 30
0.0
 11
-55.55809154349129
 21
158.6865429328057
 31
0.0
  0
ENDBLK
  5
A6
330
A4
100
AcDbEntity
  8
0
100
AcDbBlockEnd
  0
BLOCK
  5
A9
330
A7
100
AcDbEntity
  8
0
100
AcDbBlockBegin
  2
SA_Links2
 70
     0
 10
-63.33878699999988
 20
156.8349190000001
 30
0.0
  3
SA_Links2
  1

  0
INSERT
  5
A8
330
A7
100
AcDbEntity
  8
0
100
AcDbBlockReference
  2
PLT_SEC_T3_230_P-select__6
 10
-72.05820577429878
 20
121.7194167356254
 30
0.0
  0
MTEXT
  5
33E
330
A7
100
AcDbEntity
  8
1
 62
     6
100
AcDbMText
 10
-63.30814800595408
 20
116.7194179036871
 30
0.0
 40
5.0
 41
0.0
 71
     2
 72
     1
  1
 
  7
CONVERTER_11
 73
     1
 44
1.32052821128451
  0
ENDBLK
  5
AA
330
A7
100
AcDbEntity
  8
0
100
AcDbBlockEnd
  0
BLOCK
  5
B3
330
AB
100
AcDbEntity
  8
0
100
AcDbBlockBegin
  2
1
 70
     0
 10
0.0
 20
0.0
 30
0.0
  3
1
  1

  0
INSERT
  5
AC
330
AB
100
AcDbEntity
  8
0
100
AcDbBlockReference
  2
Allg2
 10
-16.0000000000004
 20
86.0
 30
0.0
  0
INSERT
  5
AD
330
AB
100
AcDbEntity
  8
0
100
AcDbBlockReference
  2
A4I_CS
 10
46.44179512949789
 20
6.36377325733469
 30
0.0
  0
INSERT
  5
AE
330
AB
100
AcDbEntity
  8
0
100
AcDbBlockReference
  2
Drfsicht2
 10
-122.0000000000002
 20
83.0
 30
0.0
  0
INSERT
  5
AF
330
AB
100
AcDbEntity
  8
0
100
AcDbBlockReference
  2
Rckans2
 10
-5.616296
 20
156.834919
 30
0.0
  0
INSERT
  5
B0
330
AB
100
AcDbEntity
  8
0
100
AcDbBlockReference
  2
Vordans2
 10
-121.9999999999999
 20
156.834919
 30
0.0
  0
INSERT
  5
B1
330
AB
100
AcDbEntity
  8
0
100
AcDbBlockReference
  2
SA_Rechts2
 10
-200.7439609999998
 20
156.8349190000001
 30
0.0
  0
INSERT
  5
B2
330
AB
100
AcDbEntity
  8
0
100
AcDbBlockReference
  2
SA_Links2
 10
-63.33878699999988
 20
156.8349190000001
 30
0.0
  0
ENDBLK
  5
B4
330
AB
100
AcDbEntity
  8
0
100
AcDbBlockEnd
  0
BLOCK
  5
268
330
261
100
AcDbEntity
  8
0
100
AcDbBlockBegin
  2
*D17
 70
     1
 10
0.0
 20
0.0
 30
0.0
  3
*D17
  1

  0
LINE
  5
262
330
261
100
AcDbEntity
  8
1
  6
Continuous
 62
     2
100
AcDbLine
 10
-151.8682420354352
 20
74.21930454349146
 30
0.0
 11
-151.8682420354352
 21
91.7194187742989
 31
0.0
  0
LINE
  5
263
330
261
100
AcDbEntity
  8
1
  6
Continuous
 62
     2
100
AcDbLine
 10
-141.8682420354352
 20
74.21930454349146
 30
0.0
 11
-153.3682420354352
 21
74.21930454349146
 31
0.0
  0
LINE
  5
264
330
261
100
AcDbEntity
  8
1
  6
Continuous
 62
     2
100
AcDbLine
 10
-141.8682420354352
 20
91.7194187742989
 30
0.0
 11
-153.3682420354352
 21
91.7194187742989
 31
0.0
  0
SOLID
  5
265
330
261
100
AcDbEntity
  8
1
 62
     2
100
AcDbTrace
 10
-152.3290257769911
 20
77.71930454349146
 30
0.0
 11
-151.4074582938793
 21
77.71930454349146
 31
0.0
 12
-151.8682420354352
 22
74.21930454349146
 32
0.0
 13
-151.8682420354352
 23
74.21930454349146
 33
0.0
  0
SOLID
  5
266
330
261
100
AcDbEntity
  8
1
 62
     2
100
AcDbTrace
 10
-151.4074582938793
 20
88.2194187742989
 30
0.0
 11
-152.3290257769911
 21
88.2194187742989
 31
0.0
 12
-151.8682420354352
 22
91.7194187742989
 32
0.0
 13
-151.8682420354352
 23
91.7194187742989
 33
0.0
  0
MTEXT
  5
267
330
261
100
AcDbEntity
  8
1
 62
     3
100
AcDbMText
 10
-153.7182420354352
 20
79.17815585479599
 30
0.0
 40
3.5
 41
0.0
 71
     7
 72
     1
  1
17,5
  7
CONVERTER_11
 11
0.0
 21
1.0
 31
0.0
 73
     1
 44
0.60024009603842
  0
ENDBLK
  5
269
330
261
100
AcDbEntity
  8
0
100
AcDbBlockEnd
  0
BLOCK
  5
2B0
330
2A9
100
AcDbEntity
  8
0
100
AcDbBlockBegin
  2
*D18
 70
     1
 10
0.0
 20
0.0
 30
0.0
  3
*D18
  1

  0
LINE
  5
2AA
330
2A9
100
AcDbEntity
  8
1
  6
Continuous
 62
     2
100
AcDbLine
 10
-142.0869278761832
 20
113.3692885471408
 30
0.0
 11
-97.28720081311285
 21
113.2129073637388
 31
0.0
  0
LINE
  5
2AB
330
2A9
100
AcDbEntity
  8
1
  6
Continuous
 62
     2
100
AcDbLine
 10
-142.0245427155041
 20
131.2412480144401
 30
0.0
 11
-142.092163853306
 21
111.8692976856541
 31
0.0
  0
LINE
  5
2AC
330
2A9
100
AcDbEntity
  8
1
  6
Continuous
 62
     2
100
AcDbLine
 10
-97.22481565243375
 20
131.084866831038
 30
0.0
 11
-97.29243679023568
 21
111.7129165022521
 31
0.0
  0
SOLID
  5
2AD
330
2A9
100
AcDbEntity
  8
1
 62
     2
100
AcDbTrace
 10
-138.5853407639614
 20
113.8178522014912
 30
0.0
 11
-138.5885576348005
 21
112.8962903328839
 31
0.0
 12
-142.0869278761832
 22
113.3692885471408
 32
0.0
 13
-142.0869278761832
 23
113.3692885471408
 33
0.0
  0
SOLID
  5
2AE
330
2A9
100
AcDbEntity
  8
1
 62
     2
100
AcDbTrace
 10
-100.7887879253347
 20
112.7643437093884
 30
0.0
 11
-100.7855710544955
 21
113.6859055779957
 31
0.0
 12
-97.28720081311285
 22
113.2129073637388
 32
0.0
 13
-97.28720081311285
 23
113.2129073637388
 33
0.0
  0
MTEXT
  5
2AF
330
2A9
100
AcDbEntity
  8
1
 62
     3
100
AcDbMText
 10
-125.450146293396
 20
115.1612262590618
 30
0.0
 40
3.5
 41
0.0
 71
     7
 72
     1
  1
44,8
  7
CONVERTER_11
 11
0.9999939076577902
 21
-0.003490651415223534
 31
0.0
 73
     1
 44
0.60024009603842
  0
ENDBLK
  5
2B1
330
2A9
100
AcDbEntity
  8
0
100
AcDbBlockEnd
  0
BLOCK
  5
2BB
330
2B4
100
AcDbEntity
  8
0
100
AcDbBlockBegin
  2
*D19
 70
     1
 10
0.0
 20
0.0
 30
0.0
  3
*D19
  1

  0
LINE
  5
2B5
330
2B4
100
AcDbEntity
  8
1
  6
Continuous
 62
     2
100
AcDbLine
 10
-150.724550635549
 20
131.2367101676003
 30
0.0
 11
-150.724550635549
 21
182.5081272603097
 31
0.0
  0
LINE
  5
2B6
330
2B4
100
AcDbEntity
  8
1
  6
Continuous
 62
     2
100
AcDbLine
 10
-140.724550635549
 20
131.2367101676003
 30
0.0
 11
-152.224550635549
 21
131.2367101676003
 31
0.0
  0
LINE
  5
2B7
330
2B4
100
AcDbEntity
  8
1
  6
Continuous
 62
     2
100
AcDbLine
 10
-118.1552037179657
 20
182.5081272603097
 30
0.0
 11
-152.224550635549
 21
182.5081272603097
 31
0.0
  0
SOLID
  5
2B8
330
2B4
100
AcDbEntity
  8
1
 62
     2
100
AcDbTrace
 10
-151.1853343771049
 20
134.7367101676003
 30
0.0
 11
-150.2637668939931
 21
134.7367101676003
 31
0.0
 12
-150.724550635549
 22
131.2367101676003
 32
0.0
 13
-150.724550635549
 23
131.2367101676003
 33
0.0
  0
SOLID
  5
2B9
330
2B4
100
AcDbEntity
  8
1
 62
     2
100
AcDbTrace
 10
-150.2637668939931
 20
179.0081272603097
 30
0.0
 11
-151.1853343771049
 21
179.0081272603097
 31
0.0
 12
-150.724550635549
 22
182.5081272603097
 32
0.0
 13
-150.724550635549
 23
182.5081272603097
 33
0.0
  0
MTEXT
  5
2BA
330
2B4
100
AcDbEntity
  8
1
 62
     3
100
AcDbMText
 10
-152.574550635549
 20
150.341422236571
 30
0.0
 40
3.5
 41
0.0
 71
     7
 72
     1
  1
51,45
  7
CONVERTER_11
 11
0.0
 21
1.0
 31
0.0
 73
     1
 44
0.60024009603842
  0
ENDBLK
  5
2BC
330
2B4
100
AcDbEntity
  8
0
100
AcDbBlockEnd
  0
BLOCK
  5
2C6
330
2BF
100
AcDbEntity
  8
0
100
AcDbBlockBegin
  2
*D20
 70
     1
 10
0.0
 20
0.0
 30
0.0
  3
*D20
  1

  0
LINE
  5
2C0
330
2BF
100
AcDbEntity
  8
1
  6
Continuous
 62
     2
100
AcDbLine
 10
-158.628507017304
 20
121.7194167356253
 30
0.0
 11
-158.628507017304
 21
182.5081272603097
 31
0.0
  0
LINE
  5
2C1
330
2BF
100
AcDbEntity
  8
1
  6
Continuous
 62
     2
100
AcDbLine
 10
-135.7869480750747
 20
121.7194167356253
 30
0.0
 11
-160.128507017304
 21
121.7194167356253
 31
0.0
  0
LINE
  5
2C2
330
2BF
100
AcDbEntity
  8
1
  6
Continuous
 62
     2
100
AcDbLine
 10
-118.1552037179657
 20
182.5081272603097
 30
0.0
 11
-160.128507017304
 21
182.5081272603097
 31
0.0
  0
SOLID
  5
2C3
330
2BF
100
AcDbEntity
  8
1
 62
     2
100
AcDbTrace
 10
-159.0892907588599
 20
125.2194167356253
 30
0.0
 11
-158.1677232757481
 21
125.2194167356253
 31
0.0
 12
-158.628507017304
 22
121.7194167356253
 32
0.0
 13
-158.628507017304
 23
121.7194167356253
 33
0.0
  0
SOLID
  5
2C4
330
2BF
100
AcDbEntity
  8
1
 62
     2
100
AcDbTrace
 10
-158.1677232757481
 20
179.0081272603097
 30
0.0
 11
-159.0892907588599
 21
179.0081272603097
 31
0.0
 12
-158.628507017304
 22
182.5081272603097
 32
0.0
 13
-158.628507017304
 23
182.5081272603097
 33
0.0
  0
MTEXT
  5
2C5
330
2BF
100
AcDbEntity
  8
1
 62
     3
100
AcDbMText
 10
-160.478507017304
 20
149.049542729081
 30
0.0
 40
3.5
 41
0.0
 71
     7
 72
     1
  1
60,85
  7
CONVERTER_11
 11
0.0
 21
1.0
 31
0.0
 73
     1
 44
0.60024009603842
  0
ENDBLK
  5
2C7
330
2BF
100
AcDbEntity
  8
0
100
AcDbBlockEnd
  0
ENDSEC
  0
SECTION
  2
ENTITIES
  0
INSERT
  5
B5
330
1F
100
AcDbEntity
  8
1
100
AcDbBlockReference
  2
1
 10
0.0
 20
0.0
 30
0.0
  0
ENDSEC
  0
SECTION
  2
OBJECTS
  0
DICTIONARY
  5
C
330
0
100
AcDbDictionary
281
     1
  3
ACAD_DETAILVIEWSTYLE
350
384
  3
ACAD_GROUP
350
D
  3
ACAD_LAYOUT
350
1A
  3
ACAD_MATERIAL
350
43
  3
ACAD_MLEADERSTYLE
350
6B
  3
ACAD_MLINESTYLE
350
17
  3
ACAD_PLOTSETTINGS
350
19
  3
ACAD_PLOTSTYLENAME
350
E
  3
ACAD_SCALELIST
350
47
  3
ACAD_SECTIONVIEWSTYLE
350
385
  3
ACAD_TABLESTYLE
350
69
  3
ACAD_VISUALSTYLE
350
2A
  3
ACDB_RECOMPOSE_DATA
350
381
  3
AcDbVariableDictionary
350
341
  0
DICTIONARY
  5
33F
330
8
100
AcDbDictionary
280
     1
281
     1
  3
ACAD_XREC_ROUNDTRIP
360
340
  0
DICTIONARY
  5
384
102
{ACAD_REACTORS
330
C
102
}
330
C
100
AcDbDictionary
281
     1
  0
DICTIONARY
  5
D
102
{ACAD_REACTORS
330
C
102
}
330
C
100
AcDbDictionary
281
     1
  0
DICTIONARY
  5
1A
102
{ACAD_REACTORS
330
C
102
}
330
C
100
AcDbDictionary
281
     1
  3
Layout1
350
1E
  3
Layout2
350
26
  3
Model
350
22
  0
DICTIONARY
  5
43
102
{ACAD_REACTORS
330
C
102
}
330
C
100
AcDbDictionary
281
     1
  3
ByBlock
350
45
  3
ByLayer
350
44
  3
Global
350
46
  0
DICTIONARY
  5
6B
102
{ACAD_REACTORS
330
C
102
}
330
C
100
AcDbDictionary
281
     1
  3
Standard
350
6C
  0
DICTIONARY
  5
17
102
{ACAD_REACTORS
330
C
102
}
330
C
100
AcDbDictionary
281
     1
  3
Standard
350
18
  0
DICTIONARY
  5
19
102
{ACAD_REACTORS
330
C
102
}
330
C
100
AcDbDictionary
281
     1
  0
ACDBDICTIONARYWDFLT
  5
E
102
{ACAD_REACTORS
330
C
102
}
330
C
100
AcDbDictionary
281
     1
  3
Normal
350
F
100
AcDbDictionaryWithDefault
340
F
  0
DICTIONARY
  5
47
102
{ACAD_REACTORS
330
C
102
}
330
C
100
AcDbDictionary
281
     1
  3
A0
350
48
  3
A1
350
49
  3
A2
350
4A
  3
A3
350
4B
  3
A4
350
4C
  3
A5
350
4D
  3
A6
350
4E
  3
A7
350
4F
  3
A8
350
50
  3
A9
350
51
  3
B0
350
52
  3
B1
350
53
  3
B2
350
54
  3
B3
350
55
  3
B4
350
56
  3
B5
350
57
  3
B6
350
58
  3
B7
350
59
  3
B8
350
5A
  3
B9
350
5B
  3
C0
350
5C
  3
C1
350
5D
  3
C2
350
5E
  3
C3
350
5F
  3
C4
350
60
  3
C5
350
61
  3
C6
350
62
  3
C7
350
63
  3
C8
350
64
  3
C9
350
65
  3
D0
350
66
  3
D1
350
67
  3
D2
350
68
  0
DICTIONARY
  5
385
102
{ACAD_REACTORS
330
C
102
}
330
C
100
AcDbDictionary
281
     1
  0
DICTIONARY
  5
69
102
{ACAD_REACTORS
330
C
102
}
330
C
100
AcDbDictionary
281
     1
  3
Standard
350
6A
  0
DICTIONARY
  5
2A
102
{ACAD_REACTORS
330
C
102
}
330
C
100
AcDbDictionary
281
     1
  3
2dWireframe
350
2F
  3
Basic
350
32
  3
Brighten
350
36
  3
ColorChange
350
3A
  3
Conceptual
350
34
  3
Dim
350
35
  3
EdgeColorOff
350
3D
  3
Facepattern
350
39
  3
Flat
350
2B
  3
FlatWithEdges
350
2C
  3
Gouraud
350
2D
  3
GouraudWithEdges
350
2E
  3
Hidden
350
31
  3
JitterOff
350
3B
  3
Linepattern
350
38
  3
OverhangOff
350
3C
  3
Realistic
350
33
  3
Shaded
350
42
  3
Shaded with edges
350
41
  3
Shades of Gray
350
3E
  3
Sketchy
350
3F
  3
Thicken
350
37
  3
Wireframe
350
30
  3
X-Ray
350
40
  0
XRECORD
  5
381
102
{ACAD_REACTORS
330
C
102
}
330
C
100
AcDbXrecord
280
     1
 90
        1
330
6A
  0
DICTIONARY
  5
341
102
{ACAD_REACTORS
330
C
102
}
330
C
100
AcDbDictionary
281
     1
  3
CANNOSCALE
350
342
  3
CMLEADERSTYLE
350
383
  3
CTABLESTYLE
350
382
  3
MSLTSCALE
350
343
  3
XCLIPFRAME
350
344
  0
XRECORD
  5
340
102
{ACAD_REACTORS
330
33F
102
}
330
33F
100
AcDbXrecord
280
     1
102
VTR_0.000_0.000_1.000_1.000_VISUALSTYLE
340
2F
102
VTR_0.000_0.000_1.000_1.000_GRIDDISPLAY
 70
     3
102
VTR_0.000_0.000_1.000_1.000_GRIDMAJOR
 70
     5
102
VTR_0.000_0.000_1.000_1.000_DEFAULTLIGHTING
280
     1
102
VTR_0.000_0.000_1.000_1.000_DEFAULTLIGHTINGTYPE
 70
     1
102
VTR_0.000_0.000_1.000_1.000_BRIGHTNESS
141
0.0
102
VTR_0.000_0.000_1.000_1.000_CONTRAST
142
0.0
  0
LAYOUT
  5
1E
102
{ACAD_REACTORS
330
1A
102
}
330
1A
100
AcDbPlotSettings
  1

  2
none_device
  4

  6

 40
0.0
 41
0.0
 42
0.0
 43
0.0
 44
0.0
 45
0.0
 46
0.0
 47
0.0
 48
0.0
 49
0.0
140
0.0
141
0.0
142
1.0
143
1.0
 70
   688
 72
     0
 73
     0
 74
     5
  7

 75
    16
 76
     0
 77
     2
 78
   300
147
1.0
148
0.0
149
0.0
100
AcDbLayout
  1
Layout1
 70
     1
 71
     1
 10
0.0
 20
0.0
 11
12.0
 21
9.0
 12
0.0
 22
0.0
 32
0.0
 14
1.00000000000000E+20
 24
1.00000000000000E+20
 34
1.00000000000000E+20
 15
-1.00000000000000E+20
 25
-1.00000000000000E+20
 35
-1.00000000000000E+20
146
0.0
 13
0.0
 23
0.0
 33
0.0
 16
1.0
 26
0.0
 36
0.0
 17
0.0
 27
1.0
 37
0.0
 76
     0
330
1B
  0
LAYOUT
  5
26
102
{ACAD_REACTORS
330
1A
102
}
330
1A
100
AcDbPlotSettings
  1

  2
none_device
  4

  6

 40
0.0
 41
0.0
 42
0.0
 43
0.0
 44
0.0
 45
0.0
 46
0.0
 47
0.0
 48
0.0
 49
0.0
140
0.0
141
0.0
142
1.0
143
1.0
 70
   688
 72
     0
 73
     0
 74
     5
  7

 75
    16
 76
     0
 77
     2
 78
   300
147
1.0
148
0.0
149
0.0
100
AcDbLayout
  1
Layout2
 70
     1
 71
     2
 10
0.0
 20
0.0
 11
0.0
 21
0.0
 12
0.0
 22
0.0
 32
0.0
 14
0.0
 24
0.0
 34
0.0
 15
0.0
 25
0.0
 35
0.0
146
0.0
 13
0.0
 23
0.0
 33
0.0
 16
1.0
 26
0.0
 36
0.0
 17
0.0
 27
1.0
 37
0.0
 76
     0
330
23
  0
LAYOUT
  5
22
102
{ACAD_REACTORS
330
1A
102
}
330
1A
100
AcDbPlotSettings
  1

  2
none_device
  4
Letter_(8.50_x_11.00_Inches)
  6

 40
6.35
 41
6.35
 42
6.35000508
 43
6.35000508
 44
215.9
 45
279.4
 46
0.0
 47
0.0
 48
0.0
 49
0.0
140
0.0
141
0.0
142
1.0
143
1.0
 70
  1712
 72
     0
 73
     0
 74
     0
  7

 75
     0
 76
     0
 77
     2
 78
   300
147
1.0
148
0.0
149
0.0
100
AcDbLayout
  1
Model
 70
     1
 71
     0
 10
0.0
 20
0.0
 11
12.0
 21
9.0
 12
0.0
 22
0.0
 32
0.0
 14
-245.5582048705012
 24
6.36377325733469
 34
0.0
 15
51.44179512949688
 25
216.3637732573348
 35
0.0
146
0.0
 13
0.0
 23
0.0
 33
0.0
 16
1.0
 26
0.0
 36
0.0
 17
0.0
 27
1.0
 37
0.0
 76
     0
330
1F
331
29
  0
MATERIAL
  5
45
102
{ACAD_REACTORS
330
43
102
}
102
{ACAD_XDICTIONARY
360
377
102
}
330
43
100
AcDbMaterial
  1
ByBlock
  0
MATERIAL
  5
44
102
{ACAD_REACTORS
330
43
102
}
102
{ACAD_XDICTIONARY
360
375
102
}
330
43
100
AcDbMaterial
  1
ByLayer
  0
MATERIAL
  5
46
102
{ACAD_REACTORS
330
43
102
}
102
{ACAD_XDICTIONARY
360
379
102
}
330
43
100
AcDbMaterial
  1
Global
  0
MLEADERSTYLE
  5
6C
102
{ACAD_REACTORS
330
6B
102
}
102
{ACAD_XDICTIONARY
360
37F
102
}
330
6B
100
AcDbMLeaderStyle
170
     2
171
     1
172
     0
 90
        2
 40
0.0
 41
0.0
173
     1
 91
-1056964608
340
14
 92
       -2
290
     1
 42
0.09
291
     1
 43
0.36
  3
Standard
341
0
 44
0.18
300

342
11
174
     1
178
     6
175
     1
176
     0
 93
-1056964608
 45
0.18
292
     0
297
     0
 46
0.18
343
0
 94
-1056964608
 47
1.0
 49
1.0
140
1.0
293
     1
141
0.0
294
     1
177
     0
142
1.0
295
     0
296
     0
143
0.125
1001
ACAD_MLEADERVER
1070
     2
  0
MLINESTYLE
  5
18
102
{ACAD_REACTORS
330
17
102
}
330
17
100
AcDbMlineStyle
  2
Standard
 70
     0
  3

 62
   256
 51
90.0
 52
90.0
 71
     2
 49
0.5
 62
   256
  6
BYLAYER
 49
-0.5
 62
   256
  6
BYLAYER
  0
ACDBPLACEHOLDER
  5
F
102
{ACAD_REACTORS
330
E
102
}
330
E
  0
SCALE
  5
48
102
{ACAD_REACTORS
330
47
102
}
330
47
100
AcDbScale
 70
     0
300
1:1
140
1.0
141
1.0
290
     1
  0
SCALE
  5
49
102
{ACAD_REACTORS
330
47
102
}
330
47
100
AcDbScale
 70
     0
300
1:2
140
1.0
141
2.0
290
     0
  0
SCALE
  5
4A
102
{ACAD_REACTORS
330
47
102
}
330
47
100
AcDbScale
 70
     0
300
1:4
140
1.0
141
4.0
290
     0
  0
SCALE
  5
4B
102
{ACAD_REACTORS
330
47
102
}
330
47
100
AcDbScale
 70
     0
300
1:5
140
1.0
141
5.0
290
     0
  0
SCALE
  5
4C
102
{ACAD_REACTORS
330
47
102
}
330
47
100
AcDbScale
 70
     0
300
1:8
140
1.0
141
8.0
290
     0
  0
SCALE
  5
4D
102
{ACAD_REACTORS
330
47
102
}
330
47
100
AcDbScale
 70
     0
300
1:10
140
1.0
141
10.0
290
     0
  0
SCALE
  5
4E
102
{ACAD_REACTORS
330
47
102
}
330
47
100
AcDbScale
 70
     0
300
1:16
140
1.0
141
16.0
290
     0
  0
SCALE
  5
4F
102
{ACAD_REACTORS
330
47
102
}
330
47
100
AcDbScale
 70
     0
300
1:20
140
1.0
141
20.0
290
     0
  0
SCALE
  5
50
102
{ACAD_REACTORS
330
47
102
}
330
47
100
AcDbScale
 70
     0
300
1:30
140
1.0
141
30.0
290
     0
  0
SCALE
  5
51
102
{ACAD_REACTORS
330
47
102
}
330
47
100
AcDbScale
 70
     0
300
1:40
140
1.0
141
40.0
290
     0
  0
SCALE
  5
52
102
{ACAD_REACTORS
330
47
102
}
330
47
100
AcDbScale
 70
     0
300
1:50
140
1.0
141
50.0
290
     0
  0
SCALE
  5
53
102
{ACAD_REACTORS
330
47
102
}
330
47
100
AcDbScale
 70
     0
300
1:100
140
1.0
141
100.0
290
     0
  0
SCALE
  5
54
102
{ACAD_REACTORS
330
47
102
}
330
47
100
AcDbScale
 70
     0
300
2:1
140
2.0
141
1.0
290
     0
  0
SCALE
  5
55
102
{ACAD_REACTORS
330
47
102
}
330
47
100
AcDbScale
 70
     0
300
4:1
140
4.0
141
1.0
290
     0
  0
SCALE
  5
56
102
{ACAD_REACTORS
330
47
102
}
330
47
100
AcDbScale
 70
     0
300
8:1
140
8.0
141
1.0
290
     0
  0
SCALE
  5
57
102
{ACAD_REACTORS
330
47
102
}
330
47
100
AcDbScale
 70
     0
300
10:1
140
10.0
141
1.0
290
     0
  0
SCALE
  5
58
102
{ACAD_REACTORS
330
47
102
}
330
47
100
AcDbScale
 70
     0
300
100:1
140
100.0
141
1.0
290
     0
  0
SCALE
  5
59
102
{ACAD_REACTORS
330
47
102
}
330
47
100
AcDbScale
 70
     0
300
1/128" = 1'-0"
140
0.0078125
141
12.0
290
     0
  0
SCALE
  5
5A
102
{ACAD_REACTORS
330
47
102
}
330
47
100
AcDbScale
 70
     0
300
1/64" = 1'-0"
140
0.015625
141
12.0
290
     0
  0
SCALE
  5
5B
102
{ACAD_REACTORS
330
47
102
}
330
47
100
AcDbScale
 70
     0
300
1/32" = 1'-0"
140
0.03125
141
12.0
290
     0
  0
SCALE
  5
5C
102
{ACAD_REACTORS
330
47
102
}
330
47
100
AcDbScale
 70
     0
300
1/16" = 1'-0"
140
0.0625
141
12.0
290
     0
  0
SCALE
  5
5D
102
{ACAD_REACTORS
330
47
102
}
330
47
100
AcDbScale
 70
     0
300
3/32" = 1'-0"
140
0.09375
141
12.0
290
     0
  0
SCALE
  5
5E
102
{ACAD_REACTORS
330
47
102
}
330
47
100
AcDbScale
 70
     0
300
1/8" = 1'-0"
140
0.125
141
12.0
290
     0
  0
SCALE
  5
5F
102
{ACAD_REACTORS
330
47
102
}
330
47
100
AcDbScale
 70
     0
300
3/16" = 1'-0"
140
0.1875
141
12.0
290
     0
  0
SCALE
  5
60
102
{ACAD_REACTORS
330
47
102
}
330
47
100
AcDbScale
 70
     0
300
1/4" = 1'-0"
140
0.25
141
12.0
290
     0
  0
SCALE
  5
61
102
{ACAD_REACTORS
330
47
102
}
330
47
100
AcDbScale
 70
     0
300
3/8" = 1'-0"
140
0.375
141
12.0
290
     0
  0
SCALE
  5
62
102
{ACAD_REACTORS
330
47
102
}
330
47
100
AcDbScale
 70
     0
300
1/2" = 1'-0"
140
0.5
141
12.0
290
     0
  0
SCALE
  5
63
102
{ACAD_REACTORS
330
47
102
}
330
47
100
AcDbScale
 70
     0
300
3/4" = 1'-0"
140
0.75
141
12.0
290
     0
  0
SCALE
  5
64
102
{ACAD_REACTORS
330
47
102
}
330
47
100
AcDbScale
 70
     0
300
1" = 1'-0"
140
1.0
141
12.0
290
     0
  0
SCALE
  5
65
102
{ACAD_REACTORS
330
47
102
}
330
47
100
AcDbScale
 70
     0
300
1-1/2" = 1'-0"
140
1.5
141
12.0
290
     0
  0
SCALE
  5
66
102
{ACAD_REACTORS
330
47
102
}
330
47
100
AcDbScale
 70
     0
300
3" = 1'-0"
140
3.0
141
12.0
290
     0
  0
SCALE
  5
67
102
{ACAD_REACTORS
330
47
102
}
330
47
100
AcDbScale
 70
     0
300
6" = 1'-0"
140
6.0
141
12.0
290
     0
  0
SCALE
  5
68
102
{ACAD_REACTORS
330
47
102
}
330
47
100
AcDbScale
 70
     0
300
1'-0" = 1'-0"
140
12.0
141
12.0
290
     0
  0
TABLESTYLE
  5
6A
102
{ACAD_REACTORS
330
69
102
}
102
{ACAD_XDICTIONARY
360
37B
102
}
330
69
100
AcDbTableStyle
  3
Standard
 70
     0
 71
     0
 40
0.06
 41
0.06
280
     0
281
     0
  7
Standard
140
0.18
170
     2
 62
     0
 63
   257
283
     0
274
    -2
284
     1
 64
     0
275
    -2
285
     1
 65
     0
276
    -2
286
     1
 66
     0
277
    -2
287
     1
 67
     0
278
    -2
288
     1
 68
     0
279
    -2
289
     1
 69
     0
  7
Standard
140
0.25
170
     5
 62
     0
 63
   257
283
     0
274
    -2
284
     1
 64
     0
275
    -2
285
     1
 65
     0
276
    -2
286
     1
 66
     0
277
    -2
287
     1
 67
     0
278
    -2
288
     1
 68
     0
279
    -2
289
     1
 69
     0
  7
Standard
140
0.18
170
     5
 62
     0
 63
   257
283
     0
274
    -2
284
     1
 64
     0
275
    -2
285
     1
 65
     0
276
    -2
286
     1
 66
     0
277
    -2
287
     1
 67
     0
278
    -2
288
     1
 68
     0
279
    -2
289
     1
 69
     0
  0
VISUALSTYLE
  5
2F
102
{ACAD_REACTORS
330
2A
102
}
102
{ACAD_XDICTIONARY
360
34D
102
}
330
2A
100
AcDbVisualStyle
  2
2dWireframe
 70
     4
 71
     0
 72
     2
 73
     0
 90
        0
 40
0.6
 41
30.0
 62
     5
 63
     7
421
 16777215
 74
     1
 91
        4
 64
     7
 65
   257
 75
     1
175
     1
 42
1.0
 92
        0
 66
   257
 43
1.0
 76
     1
 77
     6
 78
     2
 67
     7
 79
     5
170
     0
171
     0
290
     0
174
     0
 93
        1
 44
0.0
173
     0
291
     0
 45
0.0
1001
ACAD
1000
AcDbSavedByObjectVersion
1070
     0
  0
VISUALSTYLE
  5
32
102
{ACAD_REACTORS
330
2A
102
}
102
{ACAD_XDICTIONARY
360
353
102
}
330
2A
100
AcDbVisualStyle
  2
Basic
 70
     7
 71
     1
 72
     0
 73
     1
 90
        0
 40
0.6
 41
30.0
 62
     5
 63
     7
421
 16777215
 74
     0
 91
        4
 64
     7
 65
   257
 75
     1
175
     1
 42
1.0
 92
        8
 66
     7
 43
1.0
 76
     1
 77
     6
 78
     2
 67
     7
 79
     5
170
     0
171
     0
290
     0
174
     0
 93
        1
 44
0.0
173
     0
291
     1
 45
0.0
1001
ACAD
1000
AcDbSavedByObjectVersion
1070
     0
  0
VISUALSTYLE
  5
36
102
{ACAD_REACTORS
330
2A
102
}
102
{ACAD_XDICTIONARY
360
35B
102
}
330
2A
100
AcDbVisualStyle
  2
Brighten
 70
    12
 71
     2
 72
     2
 73
     0
 90
        0
 40
0.6
 41
30.0
 62
     5
 63
     7
421
 16777215
 74
     1
 91
        4
 64
     7
 65
   257
 75
     1
175
     1
 42
1.0
 92
        8
 66
     7
 43
1.0
 76
     1
 77
     6
 78
     2
 67
     7
 79
     5
170
     0
171
     0
290
     0
174
     0
 93
        1
 44
50.0
173
     0
291
     1
 45
0.0
1001
ACAD
1000
AcDbSavedByObjectVersion
1070
     0
  0
VISUALSTYLE
  5
3A
102
{ACAD_REACTORS
330
2A
102
}
102
{ACAD_XDICTIONARY
360
363
102
}
330
2A
100
AcDbVisualStyle
  2
ColorChange
 70
    16
 71
     2
 72
     2
 73
     3
 90
        0
 40
0.6
 41
30.0
 62
     5
 63
     8
421
  8421504
 74
     1
 91
        4
 64
     7
 65
   257
 75
     1
175
     1
 42
1.0
 92
        8
 66
     8
424
  8421504
 43
1.0
 76
     1
 77
     6
 78
     2
 67
     7
 79
     5
170
     0
171
     0
290
     0
174
     0
 93
        1
 44
0.0
173
     0
291
     1
 45
0.0
1001
ACAD
1000
AcDbSavedByObjectVersion
1070
     0
  0
VISUALSTYLE
  5
34
102
{ACAD_REACTORS
330
2A
102
}
102
{ACAD_XDICTIONARY
360
357
102
}
330
2A
100
AcDbVisualStyle
  2
Conceptual
 70
     9
 71
     3
 72
     2
 73
     0
 90
        0
 40
0.6
 41
30.0
 62
     5
 63
     7
421
 16777215
 74
     2
 91
        2
 64
     7
 65
   257
 75
     1
175
     1
 42
179.0
 92
        8
 66
     7
 43
1.0
 76
     1
 77
     6
 78
     2
 67
     7
 79
     3
170
     0
171
     0
290
     0
174
     0
 93
        1
 44
0.0
173
     0
291
     0
 45
0.0
1001
ACAD
1000
AcDbSavedByObjectVersion
1070
     0
  0
VISUALSTYLE
  5
35
102
{ACAD_REACTORS
330
2A
102
}
102
{ACAD_XDICTIONARY
360
359
102
}
330
2A
100
AcDbVisualStyle
  2
Dim
 70
    11
 71
     2
 72
     2
 73
     0
 90
        0
 40
0.6
 41
30.0
 62
     5
 63
     7
421
 16777215
 74
     1
 91
        4
 64
     7
 65
   257
 75
     1
175
     1
 42
1.0
 92
        8
 66
     7
 43
1.0
 76
     1
 77
     6
 78
     2
 67
     7
 79
     5
170
     0
171
     0
290
     0
174
     0
 93
        1
 44
-50.0
173
     0
291
     1
 45
0.0
1001
ACAD
1000
AcDbSavedByObjectVersion
1070
     0
  0
VISUALSTYLE
  5
3D
102
{ACAD_REACTORS
330
2A
102
}
102
{ACAD_XDICTIONARY
360
369
102
}
330
2A
100
AcDbVisualStyle
  2
EdgeColorOff
 70
    22
 71
     2
 72
     2
 73
     0
 90
        0
 40
0.6
 41
30.0
 62
     5
 63
     7
421
 16777215
 74
     1
 91
        4
 64
     7
 65
   257
 75
     1
175
     1
 42
1.0
 92
        8
 66
     7
 43
1.0
 76
     1
 77
     6
 78
     2
 67
     7
 79
     5
170
     0
171
     0
290
     0
174
     0
 93
        1
 44
0.0
173
     0
291
     1
 45
0.0
1001
ACAD
1000
AcDbSavedByObjectVersion
1070
     0
  0
VISUALSTYLE
  5
39
102
{ACAD_REACTORS
330
2A
102
}
102
{ACAD_XDICTIONARY
360
361
102
}
330
2A
100
AcDbVisualStyle
  2
Facepattern
 70
    15
 71
     2
 72
     2
 73
     0
 90
        0
 40
0.6
 41
30.0
 62
     5
 63
     7
421
 16777215
 74
     1
 91
        4
 64
     7
 65
   257
 75
     1
175
     1
 42
1.0
 92
        8
 66
     7
 43
1.0
 76
     1
 77
     6
 78
     2
 67
     7
 79
     5
170
     0
171
     0
290
     0
174
     0
 93
        1
 44
0.0
173
     0
291
     1
 45
0.0
1001
ACAD
1000
AcDbSavedByObjectVersion
1070
     0
  0
VISUALSTYLE
  5
2B
102
{ACAD_REACTORS
330
2A
102
}
102
{ACAD_XDICTIONARY
360
345
102
}
330
2A
100
AcDbVisualStyle
  2
Flat
 70
     0
 71
     2
 72
     1
 73
     1
 90
        2
 40
0.6
 41
30.0
 62
     5
 63
     7
421
 16777215
 74
     0
 91
        0
 64
     7
 65
   257
 75
     1
175
     1
 42
1.0
 92
        8
 66
     7
 43
1.0
 76
     1
 77
     6
 78
     2
 67
     7
 79
     5
170
     0
171
     0
290
     0
174
     0
 93
       13
 44
0.0
173
     0
291
     1
 45
0.0
1001
ACAD
1000
AcDbSavedByObjectVersion
1070
     0
  0
VISUALSTYLE
  5
2C
102
{ACAD_REACTORS
330
2A
102
}
102
{ACAD_XDICTIONARY
360
347
102
}
330
2A
100
AcDbVisualStyle
  2
FlatWithEdges
 70
     1
 71
     2
 72
     1
 73
     1
 90
        2
 40
0.6
 41
30.0
 62
     5
 63
     7
421
 16777215
 74
     1
 91
        0
 64
     7
 65
   257
 75
     1
175
     1
 42
1.0
 92
        0
 66
   257
 43
1.0
 76
     1
 77
     6
 78
     2
 67
     7
 79
     5
170
     0
171
     0
290
     0
174
     0
 93
       13
 44
0.0
173
     0
291
     1
 45
0.0
1001
ACAD
1000
AcDbSavedByObjectVersion
1070
     0
  0
VISUALSTYLE
  5
2D
102
{ACAD_REACTORS
330
2A
102
}
102
{ACAD_XDICTIONARY
360
349
102
}
330
2A
100
AcDbVisualStyle
  2
Gouraud
 70
     2
 71
     2
 72
     2
 73
     1
 90
        2
 40
0.6
 41
30.0
 62
     5
 63
     7
421
 16777215
 74
     0
 91
        0
 64
     7
 65
   257
 75
     1
175
     1
 42
1.0
 92
        0
 66
     7
 43
1.0
 76
     1
 77
     6
 78
     2
 67
     7
 79
     5
170
     0
171
     0
290
     0
174
     0
 93
       13
 44
0.0
173
     0
291
     1
 45
0.0
1001
ACAD
1000
AcDbSavedByObjectVersion
1070
     0
  0
VISUALSTYLE
  5
2E
102
{ACAD_REACTORS
330
2A
102
}
102
{ACAD_XDICTIONARY
360
34B
102
}
330
2A
100
AcDbVisualStyle
  2
GouraudWithEdges
 70
     3
 71
     2
 72
     2
 73
     1
 90
        2
 40
0.6
 41
30.0
 62
     5
 63
     7
421
 16777215
 74
     1
 91
        0
 64
     7
 65
   257
 75
     1
175
     1
 42
1.0
 92
        0
 66
   257
 43
1.0
 76
     1
 77
     6
 78
     2
 67
     7
 79
     5
170
     0
171
     0
290
     0
174
     0
 93
       13
 44
0.0
173
     0
291
     1
 45
0.0
1001
ACAD
1000
AcDbSavedByObjectVersion
1070
     0
  0
VISUALSTYLE
  5
31
102
{ACAD_REACTORS
330
2A
102
}
102
{ACAD_XDICTIONARY
360
351
102
}
330
2A
100
AcDbVisualStyle
  2
Hidden
 70
     6
 71
     1
 72
     2
 73
     2
 90
        0
 40
0.6
 41
30.0
 62
     5
 63
     7
421
 16777215
 74
     2
 91
        2
 64
     7
 65
   257
 75
     2
175
     1
 42
40.0
 92
        0
 66
   257
 43
1.0
 76
     1
 77
     6
 78
     2
 67
     7
 79
     3
170
     0
171
     0
290
     0
174
     0
 93
        1
 44
0.0
173
     0
291
     0
 45
0.0
1001
ACAD
1000
AcDbSavedByObjectVersion
1070
     0
  0
VISUALSTYLE
  5
3B
102
{ACAD_REACTORS
330
2A
102
}
102
{ACAD_XDICTIONARY
360
365
102
}
330
2A
100
AcDbVisualStyle
  2
JitterOff
 70
    20
 71
     2
 72
     2
 73
     0
 90
        0
 40
0.6
 41
30.0
 62
     5
 63
     7
421
 16777215
 74
     1
 91
        4
 64
     7
 65
   257
 75
     1
175
     1
 42
1.0
 92
       10
 66
     7
 43
1.0
 76
     1
 77
     6
 78
     2
 67
     7
 79
     5
170
     0
171
     0
290
     0
174
     0
 93
        1
 44
0.0
173
     0
291
     1
 45
0.0
1001
ACAD
1000
AcDbSavedByObjectVersion
1070
     0
  0
VISUALSTYLE
  5
38
102
{ACAD_REACTORS
330
2A
102
}
102
{ACAD_XDICTIONARY
360
35F
102
}
330
2A
100
AcDbVisualStyle
  2
Linepattern
 70
    14
 71
     2
 72
     2
 73
     0
 90
        0
 40
0.6
 41
30.0
 62
     5
 63
     7
421
 16777215
 74
     1
 91
        4
 64
     7
 65
   257
 75
     7
175
     7
 42
1.0
 92
        8
 66
     7
 43
1.0
 76
     1
 77
     6
 78
     2
 67
     7
 79
     5
170
     0
171
     0
290
     0
174
     0
 93
        1
 44
0.0
173
     0
291
     1
 45
0.0
1001
ACAD
1000
AcDbSavedByObjectVersion
1070
     0
  0
VISUALSTYLE
  5
3C
102
{ACAD_REACTORS
330
2A
102
}
102
{ACAD_XDICTIONARY
360
367
102
}
330
2A
100
AcDbVisualStyle
  2
OverhangOff
 70
    21
 71
     2
 72
     2
 73
     0
 90
        0
 40
0.6
 41
30.0
 62
     5
 63
     7
421
 16777215
 74
     1
 91
        4
 64
     7
 65
   257
 75
     1
175
     1
 42
1.0
 92
        9
 66
     7
 43
1.0
 76
     1
 77
     6
 78
     2
 67
     7
 79
     5
170
     0
171
     0
290
     0
174
     0
 93
        1
 44
0.0
173
     0
291
     1
 45
0.0
1001
ACAD
1000
AcDbSavedByObjectVersion
1070
     0
  0
VISUALSTYLE
  5
33
102
{ACAD_REACTORS
330
2A
102
}
102
{ACAD_XDICTIONARY
360
355
102
}
330
2A
100
AcDbVisualStyle
  2
Realistic
 70
     8
 71
     2
 72
     3
 73
     0
 90
        2
 40
0.6
 41
30.0
 62
     5
 63
     7
421
 16777215
 74
     0
 91
        0
 64
     7
 65
   257
 75
     1
175
     1
 42
1.0
 92
        8
 66
   257
 43
1.0
 76
     1
 77
     6
 78
     2
 67
     7
 79
     3
170
     0
171
     0
290
     0
174
     0
 93
       13
 44
0.0
173
     0
291
     0
 45
0.0
1001
ACAD
1000
AcDbSavedByObjectVersion
1070
     0
  0
VISUALSTYLE
  5
42
102
{ACAD_REACTORS
330
2A
102
}
102
{ACAD_XDICTIONARY
360
373
102
}
330
2A
100
AcDbVisualStyle
  2
Shaded
 70
    27
 71
     2
 72
     2
 73
     1
 90
        2
 40
0.6
 41
30.0
 62
     5
 63
     7
421
 16777215
 74
     0
 91
        4
 64
     7
 65
   257
 75
     1
175
     1
 42
1.0
 92
        8
 66
   257
 43
1.0
 76
     1
 77
     6
 78
     2
 67
     8
425
  7895160
 79
     3
170
     0
171
     0
290
     0
174
     0
 93
        5
 44
0.0
173
     0
291
     0
 45
0.0
1001
ACAD
1000
AcDbSavedByObjectVersion
1070
     0
  0
VISUALSTYLE
  5
41
102
{ACAD_REACTORS
330
2A
102
}
102
{ACAD_XDICTIONARY
360
371
102
}
330
2A
100
AcDbVisualStyle
  2
Shaded with edges
 70
    26
 71
     2
 72
     2
 73
     1
 90
        2
 40
0.6
 41
30.0
 62
     5
 63
     7
421
 16777215
 74
     1
 91
       10
 64
     7
 65
   257
 75
     2
175
     1
 42
1.0
 92
        8
 66
   257
 43
1.0
 76
     1
 77
     6
 78
     2
 67
     7
 79
     3
170
     0
171
     0
290
     0
174
     0
 93
        5
 44
0.0
173
     0
291
     0
 45
0.0
1001
ACAD
1000
AcDbSavedByObjectVersion
1070
     0
  0
VISUALSTYLE
  5
3E
102
{ACAD_REACTORS
330
2A
102
}
102
{ACAD_XDICTIONARY
360
36B
102
}
330
2A
100
AcDbVisualStyle
  2
Shades of Gray
 70
    23
 71
     2
 72
     2
 73
     3
 90
        0
 40
0.6
 41
30.0
 62
     5
 63
     7
421
 16777215
 74
     2
 91
        2
 64
     7
 65
     7
 75
     1
175
     1
 42
40.0
 92
        8
 66
     7
 43
1.0
 76
     1
 77
     6
 78
     2
 67
     7
 79
     3
170
     0
171
     0
290
     0
174
     0
 93
        1
 44
0.0
173
     0
291
     0
 45
0.0
1001
ACAD
1000
AcDbSavedByObjectVersion
1070
     0
  0
VISUALSTYLE
  5
3F
102
{ACAD_REACTORS
330
2A
102
}
102
{ACAD_XDICTIONARY
360
36D
102
}
330
2A
100
AcDbVisualStyle
  2
Sketchy
 70
    24
 71
     1
 72
     2
 73
     2
 90
        0
 40
0.6
 41
30.0
 62
     5
 63
     7
421
 16777215
 74
     2
 91
        2
 64
     7
 65
     7
 75
     1
175
     1
 42
40.0
 92
       11
 66
     7
 43
1.0
 76
     1
 77
     6
 78
     2
 67
     7
 79
     6
170
     0
171
     0
290
     0
174
     0
 93
        1
 44
0.0
173
     0
291
     0
 45
0.0
1001
ACAD
1000
AcDbSavedByObjectVersion
1070
     0
  0
VISUALSTYLE
  5
37
102
{ACAD_REACTORS
330
2A
102
}
102
{ACAD_XDICTIONARY
360
35D
102
}
330
2A
100
AcDbVisualStyle
  2
Thicken
 70
    13
 71
     2
 72
     2
 73
     0
 90
        0
 40
0.6
 41
30.0
 62
     5
 63
     7
421
 16777215
 74
     1
 91
        4
 64
     7
 65
   257
 75
     1
175
     1
 42
1.0
 92
       12
 66
     7
 43
1.0
 76
     1
 77
     6
 78
     2
 67
     7
 79
     5
170
     0
171
     0
290
     0
174
     0
 93
        1
 44
0.0
173
     0
291
     1
 45
0.0
1001
ACAD
1000
AcDbSavedByObjectVersion
1070
     0
  0
VISUALSTYLE
  5
30
102
{ACAD_REACTORS
330
2A
102
}
102
{ACAD_XDICTIONARY
360
34F
102
}
330
2A
100
AcDbVisualStyle
  2
Wireframe
 70
     5
 71
     0
 72
     2
 73
     0
 90
        0
 40
0.6
 41
30.0
 62
     5
 63
     7
421
 16777215
 74
     1
 91
        4
 64
     7
 65
   257
 75
     1
175
     1
 42
1.0
 92
        0
 66
   257
 43
1.0
 76
     1
 77
     6
 78
     2
 67
     7
 79
     3
170
     0
171
     0
290
     0
174
     0
 93
        1
 44
0.0
173
     0
291
     0
 45
0.0
1001
ACAD
1000
AcDbSavedByObjectVersion
1070
     0
  0
VISUALSTYLE
  5
40
102
{ACAD_REACTORS
330
2A
102
}
102
{ACAD_XDICTIONARY
360
36F
102
}
330
2A
100
AcDbVisualStyle
  2
X-Ray
 70
    25
 71
     2
 72
     2
 73
     1
 90
        1
 40
0.5
 41
30.0
 62
     5
 63
     7
421
 16777215
 74
     1
 91
        0
 64
     7
 65
   257
 75
     1
175
     1
 42
1.0
 92
        8
 66
     7
 43
1.0
 76
     1
 77
     6
 78
     2
 67
     7
 79
     3
170
     0
171
     0
290
     0
174
     0
 93
       13
 44
0.0
173
     0
291
     0
 45
0.0
1001
ACAD
1000
AcDbSavedByObjectVersion
1070
     0
  0
DICTIONARYVAR
  5
342
102
{ACAD_REACTORS
330
341
102
}
330
341
100
DictionaryVariables
280
     0
  1
1:1
  0
DICTIONARYVAR
  5
383
102
{ACAD_REACTORS
330
341
102
}
330
341
100
DictionaryVariables
280
     0
  1
Standard
  0
DICTIONARYVAR
  5
382
102
{ACAD_REACTORS
330
341
102
}
330
341
100
DictionaryVariables
280
     0
  1
Standard
  0
DICTIONARYVAR
  5
343
102
{ACAD_REACTORS
330
341
102
}
330
341
100
DictionaryVariables
280
     0
  1
1
  0
DICTIONARYVAR
  5
344
102
{ACAD_REACTORS
330
341
102
}
330
341
100
DictionaryVariables
280
     0
  1
2
  0
DICTIONARY
  5
377
330
45
100
AcDbDictionary
280
     1
281
     1
  3
ACAD_XREC_ROUNDTRIP
360
378
  0
DICTIONARY
  5
375
330
44
100
AcDbDictionary
280
     1
281
     1
  3
ACAD_XREC_ROUNDTRIP
360
376
  0
DICTIONARY
  5
379
330
46
100
AcDbDictionary
280
     1
281
     1
  3
ACAD_XREC_ROUNDTRIP
360
37A
  0
DICTIONARY
  5
37F
330
6C
100
AcDbDictionary
280
     1
281
     1
  3
ACAD_XREC_ROUNDTRIP
360
380
  0
DICTIONARY
  5
37B
330
6A
100
AcDbDictionary
280
     1
281
     1
  3
ACAD_ROUNDTRIP_2008_TABLESTYLE_CELLSTYLEMAP
360
37D
  3
ACAD_XREC_ROUNDTRIP
360
37C
  0
DICTIONARY
  5
34D
330
2F
100
AcDbDictionary
280
     1
281
     1
  3
ACAD_XREC_ROUNDTRIP
360
34E
  0
DICTIONARY
  5
353
330
32
100
AcDbDictionary
280
     1
281
     1
  3
ACAD_XREC_ROUNDTRIP
360
354
  0
DICTIONARY
  5
35B
330
36
100
AcDbDictionary
280
     1
281
     1
  3
ACAD_XREC_ROUNDTRIP
360
35C
  0
DICTIONARY
  5
363
330
3A
100
AcDbDictionary
280
     1
281
     1
  3
ACAD_XREC_ROUNDTRIP
360
364
  0
DICTIONARY
  5
357
330
34
100
AcDbDictionary
280
     1
281
     1
  3
ACAD_XREC_ROUNDTRIP
360
358
  0
DICTIONARY
  5
359
330
35
100
AcDbDictionary
280
     1
281
     1
  3
ACAD_XREC_ROUNDTRIP
360
35A
  0
DICTIONARY
  5
369
330
3D
100
AcDbDictionary
280
     1
281
     1
  3
ACAD_XREC_ROUNDTRIP
360
36A
  0
DICTIONARY
  5
361
330
39
100
AcDbDictionary
280
     1
281
     1
  3
ACAD_XREC_ROUNDTRIP
360
362
  0
DICTIONARY
  5
345
330
2B
100
AcDbDictionary
280
     1
281
     1
  3
ACAD_XREC_ROUNDTRIP
360
346
  0
DICTIONARY
  5
347
330
2C
100
AcDbDictionary
280
     1
281
     1
  3
ACAD_XREC_ROUNDTRIP
360
348
  0
DICTIONARY
  5
349
330
2D
100
AcDbDictionary
280
     1
281
     1
  3
ACAD_XREC_ROUNDTRIP
360
34A
  0
DICTIONARY
  5
34B
330
2E
100
AcDbDictionary
280
     1
281
     1
  3
ACAD_XREC_ROUNDTRIP
360
34C
  0
DICTIONARY
  5
351
330
31
100
AcDbDictionary
280
     1
281
     1
  3
ACAD_XREC_ROUNDTRIP
360
352
  0
DICTIONARY
  5
365
330
3B
100
AcDbDictionary
280
     1
281
     1
  3
ACAD_XREC_ROUNDTRIP
360
366
  0
DICTIONARY
  5
35F
330
38
100
AcDbDictionary
280
     1
281
     1
  3
ACAD_XREC_ROUNDTRIP
360
360
  0
DICTIONARY
  5
367
330
3C
100
AcDbDictionary
280
     1
281
     1
  3
ACAD_XREC_ROUNDTRIP
360
368
  0
DICTIONARY
  5
355
330
33
100
AcDbDictionary
280
     1
281
     1
  3
ACAD_XREC_ROUNDTRIP
360
356
  0
DICTIONARY
  5
373
330
42
100
AcDbDictionary
280
     1
281
     1
  3
ACAD_XREC_ROUNDTRIP
360
374
  0
DICTIONARY
  5
371
330
41
100
AcDbDictionary
280
     1
281
     1
  3
ACAD_XREC_ROUNDTRIP
360
372
  0
DICTIONARY
  5
36B
330
3E
100
AcDbDictionary
280
     1
281
     1
  3
ACAD_XREC_ROUNDTRIP
360
36C
  0
DICTIONARY
  5
36D
330
3F
100
AcDbDictionary
280
     1
281
     1
  3
ACAD_XREC_ROUNDTRIP
360
36E
  0
DICTIONARY
  5
35D
330
37
100
AcDbDictionary
280
     1
281
     1
  3
ACAD_XREC_ROUNDTRIP
360
35E
  0
DICTIONARY
  5
34F
330
30
100
AcDbDictionary
280
     1
281
     1
  3
ACAD_XREC_ROUNDTRIP
360
350
  0
DICTIONARY
  5
36F
330
40
100
AcDbDictionary
280
     1
281
     1
  3
ACAD_XREC_ROUNDTRIP
360
370
  0
XRECORD
  5
378
102
{ACAD_REACTORS
330
377
102
}
330
377
100
AcDbXrecord
280
     1
102
MATERIAL
148
0.0
149
0.0
149
0.0
 93
        0
 94
      127
282
     0
 72
     1
 77
     1
171
     1
175
     1
179
     1
273
     0
  0
XRECORD
  5
376
102
{ACAD_REACTORS
330
375
102
}
330
375
100
AcDbXrecord
280
     1
102
MATERIAL
148
0.0
149
0.0
149
0.0
 93
        0
 94
      127
282
     0
 72
     1
 77
     1
171
     1
175
     1
179
     1
273
     0
  0
XRECORD
  5
37A
102
{ACAD_REACTORS
330
379
102
}
330
379
100
AcDbXrecord
280
     1
102
MATERIAL
148
0.0
149
0.0
149
0.0
 93
        0
 94
      127
282
     0
 72
     1
 77
     1
171
     1
175
     1
179
     1
273
     0
  0
XRECORD
  5
380
102
{ACAD_REACTORS
330
37F
102
}
330
37F
100
AcDbXrecord
280
     1
102
ACAD_ROUNDTRIP_2010_MLEADER_STYLE
  0
CELLSTYLEMAP
  5
37D
102
{ACAD_REACTORS
330
37B
102
}
330
37B
100
AcDbCellStyleMap
 90
        3
300
CELLSTYLE
  1
TABLEFORMAT_BEGIN
 90
        5
170
     1
 91
        0
 92
    32768
 62
   257
 93
        1
300
CONTENTFORMAT
  1
CONTENTFORMAT_BEGIN
 90
        0
 91
        0
 92
        4
 93
        0
300

 40
0.0
140
1.0
 94
        5
 62
     0
340
11
144
0.25
309
CONTENTFORMAT_END
171
     1
301
MARGIN
  1
CELLMARGIN_BEGIN
 40
0.06
 40
0.06
 40
0.06
 40
0.06
 40
0.06
 40
0.06
309
CELLMARGIN_END
 94
        6
 95
        1
302
GRIDFORMAT
  1
GRIDFORMAT_BEGIN
 90
        0
 91
        1
 62
     0
 92
       -2
340
14
 93
        0
 40
0.045
309
GRIDFORMAT_END
 95
        2
302
GRIDFORMAT
  1
GRIDFORMAT_BEGIN
 90
        0
 91
        1
 62
     0
 92
       -2
340
14
 93
        0
 40
0.045
309
GRIDFORMAT_END
 95
        4
302
GRIDFORMAT
  1
GRIDFORMAT_BEGIN
 90
        0
 91
        1
 62
     0
 92
       -2
340
14
 93
        0
 40
0.045
309
GRIDFORMAT_END
 95
        8
302
GRIDFORMAT
  1
GRIDFORMAT_BEGIN
 90
        0
 91
        1
 62
     0
 92
       -2
340
14
 93
        0
 40
0.045
309
GRIDFORMAT_END
 95
       16
302
GRIDFORMAT
  1
GRIDFORMAT_BEGIN
 90
        0
 91
        1
 62
     0
 92
       -2
340
14
 93
        0
 40
0.045
309
GRIDFORMAT_END
 95
       32
302
GRIDFORMAT
  1
GRIDFORMAT_BEGIN
 90
        0
 91
        1
 62
     0
 92
       -2
340
14
 93
        0
 40
0.045
309
GRIDFORMAT_END
309
TABLEFORMAT_END
  1
CELLSTYLE_BEGIN
 90
        1
 91
        1
300
_TITLE
309
CELLSTYLE_END
300
CELLSTYLE
  1
TABLEFORMAT_BEGIN
 90
        5
170
     1
 91
        0
 92
        0
 62
   257
 93
        1
300
CONTENTFORMAT
  1
CONTENTFORMAT_BEGIN
 90
        0
 91
        0
 92
        4
 93
        0
300

 40
0.0
140
1.0
 94
        5
 62
     0
340
11
144
0.18
309
CONTENTFORMAT_END
171
     1
301
MARGIN
  1
CELLMARGIN_BEGIN
 40
0.06
 40
0.06
 40
0.06
 40
0.06
 40
0.06
 40
0.06
309
CELLMARGIN_END
 94
        6
 95
        1
302
GRIDFORMAT
  1
GRIDFORMAT_BEGIN
 90
        0
 91
        1
 62
     0
 92
       -2
340
14
 93
        0
 40
0.045
309
GRIDFORMAT_END
 95
        2
302
GRIDFORMAT
  1
GRIDFORMAT_BEGIN
 90
        0
 91
        1
 62
     0
 92
       -2
340
14
 93
        0
 40
0.045
309
GRIDFORMAT_END
 95
        4
302
GRIDFORMAT
  1
GRIDFORMAT_BEGIN
 90
        0
 91
        1
 62
     0
 92
       -2
340
14
 93
        0
 40
0.045
309
GRIDFORMAT_END
 95
        8
302
GRIDFORMAT
  1
GRIDFORMAT_BEGIN
 90
        0
 91
        1
 62
     0
 92
       -2
340
14
 93
        0
 40
0.045
309
GRIDFORMAT_END
 95
       16
302
GRIDFORMAT
  1
GRIDFORMAT_BEGIN
 90
        0
 91
        1
 62
     0
 92
       -2
340
14
 93
        0
 40
0.045
309
GRIDFORMAT_END
 95
       32
302
GRIDFORMAT
  1
GRIDFORMAT_BEGIN
 90
        0
 91
        1
 62
     0
 92
       -2
340
14
 93
        0
 40
0.045
309
GRIDFORMAT_END
309
TABLEFORMAT_END
  1
CELLSTYLE_BEGIN
 90
        2
 91
        1
300
_HEADER
309
CELLSTYLE_END
300
CELLSTYLE
  1
TABLEFORMAT_BEGIN
 90
        5
170
     1
 91
        0
 92
        0
 62
   257
 93
        1
300
CONTENTFORMAT
  1
CONTENTFORMAT_BEGIN
 90
        0
 91
        0
 92
        4
 93
        0
300

 40
0.0
140
1.0
 94
        2
 62
     0
340
11
144
0.18
309
CONTENTFORMAT_END
171
     1
301
MARGIN
  1
CELLMARGIN_BEGIN
 40
0.06
 40
0.06
 40
0.06
 40
0.06
 40
0.06
 40
0.06
309
CELLMARGIN_END
 94
        6
 95
        1
302
GRIDFORMAT
  1
GRIDFORMAT_BEGIN
 90
        0
 91
        1
 62
     0
 92
       -2
340
14
 93
        0
 40
0.045
309
GRIDFORMAT_END
 95
        2
302
GRIDFORMAT
  1
GRIDFORMAT_BEGIN
 90
        0
 91
        1
 62
     0
 92
       -2
340
14
 93
        0
 40
0.045
309
GRIDFORMAT_END
 95
        4
302
GRIDFORMAT
  1
GRIDFORMAT_BEGIN
 90
        0
 91
        1
 62
     0
 92
       -2
340
14
 93
        0
 40
0.045
309
GRIDFORMAT_END
 95
        8
302
GRIDFORMAT
  1
GRIDFORMAT_BEGIN
 90
        0
 91
        1
 62
     0
 92
       -2
340
14
 93
        0
 40
0.045
309
GRIDFORMAT_END
 95
       16
302
GRIDFORMAT
  1
GRIDFORMAT_BEGIN
 90
        0
 91
        1
 62
     0
 92
       -2
340
14
 93
        0
 40
0.045
309
GRIDFORMAT_END
 95
       32
302
GRIDFORMAT
  1
GRIDFORMAT_BEGIN
 90
        0
 91
        1
 62
     0
 92
       -2
340
14
 93
        0
 40
0.045
309
GRIDFORMAT_END
309
TABLEFORMAT_END
  1
CELLSTYLE_BEGIN
 90
        3
 91
        2
300
_DATA
309
CELLSTYLE_END
  0
XRECORD
  5
37C
102
{ACAD_REACTORS
330
37B
102
}
330
37B
100
AcDbXrecord
280
     1
102
ACAD_ROUNDTRIP_PRE2007_TABLESTYLE
 90
        4
 91
        0
  1

 92
        4
 93
        0
  2

 94
        4
 95
        0
  3

  0
XRECORD
  5
34E
102
{ACAD_REACTORS
330
34D
102
}
330
34D
100
AcDbXrecord
280
     1
102
RTVSPropertyOp0
 70
     1
102
RTVSPropertyOp1
 70
     1
102
RTVSPropertyOp2
 70
     1
102
RTVSPropertyOp3
 70
     1
102
RTVSPropertyOp4
 70
     1
102
RTVSPropertyOp5
 70
     1
102
RTVSPropertyOp6
 70
     1
102
RTVSPropertyOp7
 70
     1
102
RTVSPropertyOp8
 70
     1
102
RTVSPropertyOp9
 70
     1
102
RTVSPropertyOp10
 70
     1
102
RTVSPropertyOp11
 70
     1
102
RTVSPropertyOp12
 70
     1
102
RTVSPropertyOp13
 70
     1
102
RTVSPropertyOp14
 70
     1
102
RTVSPropertyOp15
 70
     1
102
RTVSPropertyOp16
 70
     1
102
RTVSPropertyOp17
 70
     1
102
RTVSPropertyOp18
 70
     1
102
RTVSPropertyOp19
 70
     1
102
RTVSPropertyOp20
 70
     1
102
RTVSPropertyOp21
 70
     1
102
RTVSPropertyOp22
 70
     1
102
RTVSPropertyOp23
 70
     1
102
RTVSPropertyOp24
 70
     1
102
RTVSPropertyOp25
 70
     1
102
RTVSPropertyOp26
 70
     1
102
RTVSPropertyOp27
 70
     1
102
RTVSPropertyOp28
 70
     1
102
RTVSPropertyOp29
 70
     1
102
RTVSPropertyOp30
 70
     1
102
RTVSPropertyOp31
 70
     1
102
RTVSPropertyOp32
 70
     1
102
RTVSPropertyOp33
 70
     1
102
RTVSPropertyOp34
 70
     1
102
RTVSPropertyOp35
 70
     1
102
RTVSPropertyOp36
 70
     1
102
RTVSPropertyOp37
 70
     1
102
RTVSPropertyOp38
 70
     1
102
RTVSPropertyOp39
 70
     1
102
RTVSPropertyOp40
 70
     1
102
RTVSPropertyOp41
 70
     1
102
RTVSPropertyOp42
 70
     1
102
RTVSPropertyOp43
 70
     1
102
RTVSPropertyOp44
 70
     1
102
RTVSPropertyOp45
 70
     1
102
RTVSPropertyOp46
 70
     1
102
RTVSPropertyOp47
 70
     1
102
RTVSPropertyOp48
 70
     1
102
RTVSPropertyOp49
 70
     1
102
RTVSPropertyOp50
 70
     1
102
RTVSPropertyOp51
 70
     0
102
RTVSPropertyOp52
 70
     0
102
RTVSPropertyOp53
 70
     1
102
RTVSPropertyOp54
 70
     1
102
RTVSPropertyOp55
 70
     1
102
RTVSPropertyOp56
 70
     1
102
RTVSPropertyOp57
 70
     1
102
RTVSPost2010Prop28
280
     1
102
RTVSPost2010PropOp28
 70
     1
102
RTVSPost2010Prop29
280
     1
102
RTVSPost2010PropOp29
 70
     1
102
RTVSPost2010Prop30
280
     0
102
RTVSPost2010PropOp30
 70
     1
102
RTVSPost2010Prop31
280
     0
102
RTVSPost2010PropOp31
 70
     1
102
RTVSPost2010Prop32
280
     0
102
RTVSPost2010PropOp32
 70
     1
102
RTVSPost2010Prop33
280
     0
102
RTVSPost2010PropOp33
 70
     1
102
RTVSPost2010Prop34
280
     0
102
RTVSPost2010PropOp34
 70
     1
102
RTVSPost2010Prop35
280
     0
102
RTVSPost2010PropOp35
 70
     1
102
RTVSPost2010Prop36
280
     0
102
RTVSPost2010PropOp36
 70
     1
102
RTVSPost2010Prop37
 90
       50
102
RTVSPost2010PropOp37
 70
     1
102
RTVSPost2010Prop38
140
0.0
102
RTVSPost2010PropOp38
 70
     1
102
RTVSPost2010Prop39
140
1.0
102
RTVSPost2010PropOp39
 70
     1
102
RTVSPost2010Prop40
 90
        0
102
RTVSPost2010PropOp40
 70
     1
102
RTVSPost2010Prop41ColorIndex
 90
       18
102
RTVSPost2010Prop41ColorRGB
 90
        0
102
RTVSPost2010PropOp41
 70
     1
102
RTVSPost2010Prop42
 90
       50
102
RTVSPost2010PropOp42
 70
     1
102
RTVSPost2010Prop43
 90
        3
102
RTVSPost2010PropOp43
 70
     1
102
RTVSPost2010Prop44ColorIndex
 90
        5
102
RTVSPost2010Prop44ColorRGB
 90
      255
102
RTVSPost2010PropOp44
 70
     1
102
RTVSPost2010Prop45
280
     0
102
RTVSPost2010PropOp45
 70
     1
102
RTVSPost2010Prop46
 90
       50
102
RTVSPost2010PropOp46
 70
     1
102
RTVSPost2010Prop47
 90
       50
102
RTVSPost2010PropOp47
 70
     1
102
RTVSPost2010Prop48
 90
       50
102
RTVSPost2010PropOp48
 70
     1
102
RTVSPost2010Prop49
280
     0
102
RTVSPost2010PropOp49
 70
     1
102
RTVSPost2010Prop50
 90
       50
102
RTVSPost2010PropOp50
 70
     1
102
RTVSPost2010Prop51ColorIndex
 90
      256
102
RTVSPost2010Prop51ColorRGB
 90
-16777216
102
RTVSPost2010PropOp51
 70
     0
102
RTVSPost2010Prop52
140
1.0
102
RTVSPost2010PropOp52
 70
     0
102
RTVSPost2010Prop53
 90
        2
102
RTVSPost2010PropOp53
 70
     1
102
RTVSPost2010Prop54
  1
strokes_ogs.tif
102
RTVSPost2010PropOp54
 70
     1
102
RTVSPost2010Prop55
280
     0
102
RTVSPost2010PropOp55
 70
     1
102
RTVSPost2010Prop56
140
1.0
102
RTVSPost2010PropOp56
 70
     1
102
RTVSPost2010Prop57
140
1.0
102
RTVSPost2010PropOp57
 70
     1
  0
XRECORD
  5
354
102
{ACAD_REACTORS
330
353
102
}
330
353
100
AcDbXrecord
280
     1
102
RTVSPropertyOp0
 70
     1
102
RTVSPropertyOp1
 70
     1
102
RTVSPropertyOp2
 70
     1
102
RTVSPropertyOp3
 70
     1
102
RTVSPropertyOp4
 70
     1
102
RTVSPropertyOp5
 70
     1
102
RTVSPropertyOp6
 70
     1
102
RTVSPropertyOp7
 70
     1
102
RTVSPropertyOp8
 70
     1
102
RTVSPropertyOp9
 70
     1
102
RTVSPropertyOp10
 70
     1
102
RTVSPropertyOp11
 70
     1
102
RTVSPropertyOp12
 70
     1
102
RTVSPropertyOp13
 70
     1
102
RTVSPropertyOp14
 70
     1
102
RTVSPropertyOp15
 70
     1
102
RTVSPropertyOp16
 70
     1
102
RTVSPropertyOp17
 70
     1
102
RTVSPropertyOp18
 70
     1
102
RTVSPropertyOp19
 70
     1
102
RTVSPropertyOp20
 70
     1
102
RTVSPropertyOp21
 70
     1
102
RTVSPropertyOp22
 70
     1
102
RTVSPropertyOp23
 70
     1
102
RTVSPropertyOp24
 70
     1
102
RTVSPropertyOp25
 70
     1
102
RTVSPropertyOp26
 70
     1
102
RTVSPropertyOp27
 70
     1
102
RTVSPropertyOp28
 70
     1
102
RTVSPropertyOp29
 70
     1
102
RTVSPropertyOp30
 70
     1
102
RTVSPropertyOp31
 70
     1
102
RTVSPropertyOp32
 70
     1
102
RTVSPropertyOp33
 70
     1
102
RTVSPropertyOp34
 70
     1
102
RTVSPropertyOp35
 70
     1
102
RTVSPropertyOp36
 70
     1
102
RTVSPropertyOp37
 70
     1
102
RTVSPropertyOp38
 70
     1
102
RTVSPropertyOp39
 70
     1
102
RTVSPropertyOp40
 70
     1
102
RTVSPropertyOp41
 70
     1
102
RTVSPropertyOp42
 70
     1
102
RTVSPropertyOp43
 70
     1
102
RTVSPropertyOp44
 70
     1
102
RTVSPropertyOp45
 70
     1
102
RTVSPropertyOp46
 70
     1
102
RTVSPropertyOp47
 70
     1
102
RTVSPropertyOp48
 70
     1
102
RTVSPropertyOp49
 70
     1
102
RTVSPropertyOp50
 70
     1
102
RTVSPropertyOp51
 70
     0
102
RTVSPropertyOp52
 70
     0
102
RTVSPropertyOp53
 70
     1
102
RTVSPropertyOp54
 70
     1
102
RTVSPropertyOp55
 70
     1
102
RTVSPropertyOp56
 70
     1
102
RTVSPropertyOp57
 70
     1
102
RTVSPost2010Prop28
280
     0
102
RTVSPost2010PropOp28
 70
     1
102
RTVSPost2010Prop29
280
     1
102
RTVSPost2010PropOp29
 70
     1
102
RTVSPost2010Prop30
280
     1
102
RTVSPost2010PropOp30
 70
     1
102
RTVSPost2010Prop31
280
     0
102
RTVSPost2010PropOp31
 70
     1
102
RTVSPost2010Prop32
280
     0
102
RTVSPost2010PropOp32
 70
     1
102
RTVSPost2010Prop33
280
     0
102
RTVSPost2010PropOp33
 70
     1
102
RTVSPost2010Prop34
280
     0
102
RTVSPost2010PropOp34
 70
     1
102
RTVSPost2010Prop35
280
     0
102
RTVSPost2010PropOp35
 70
     1
102
RTVSPost2010Prop36
280
     0
102
RTVSPost2010PropOp36
 70
     1
102
RTVSPost2010Prop37
 90
       50
102
RTVSPost2010PropOp37
 70
     1
102
RTVSPost2010Prop38
140
0.0
102
RTVSPost2010PropOp38
 70
     1
102
RTVSPost2010Prop39
140
1.0
102
RTVSPost2010PropOp39
 70
     1
102
RTVSPost2010Prop40
 90
        0
102
RTVSPost2010PropOp40
 70
     1
102
RTVSPost2010Prop41ColorIndex
 90
       18
102
RTVSPost2010Prop41ColorRGB
 90
        0
102
RTVSPost2010PropOp41
 70
     1
102
RTVSPost2010Prop42
 90
       50
102
RTVSPost2010PropOp42
 70
     1
102
RTVSPost2010Prop43
 90
        3
102
RTVSPost2010PropOp43
 70
     1
102
RTVSPost2010Prop44ColorIndex
 90
        5
102
RTVSPost2010Prop44ColorRGB
 90
      255
102
RTVSPost2010PropOp44
 70
     1
102
RTVSPost2010Prop45
280
     0
102
RTVSPost2010PropOp45
 70
     1
102
RTVSPost2010Prop46
 90
       50
102
RTVSPost2010PropOp46
 70
     1
102
RTVSPost2010Prop47
 90
       50
102
RTVSPost2010PropOp47
 70
     1
102
RTVSPost2010Prop48
 90
       50
102
RTVSPost2010PropOp48
 70
     1
102
RTVSPost2010Prop49
280
     0
102
RTVSPost2010PropOp49
 70
     1
102
RTVSPost2010Prop50
 90
       50
102
RTVSPost2010PropOp50
 70
     1
102
RTVSPost2010Prop51ColorIndex
 90
      256
102
RTVSPost2010Prop51ColorRGB
 90
-16777216
102
RTVSPost2010PropOp51
 70
     0
102
RTVSPost2010Prop52
140
1.0
102
RTVSPost2010PropOp52
 70
     0
102
RTVSPost2010Prop53
 90
        2
102
RTVSPost2010PropOp53
 70
     1
102
RTVSPost2010Prop54
  1
strokes_ogs.tif
102
RTVSPost2010PropOp54
 70
     1
102
RTVSPost2010Prop55
280
     0
102
RTVSPost2010PropOp55
 70
     1
102
RTVSPost2010Prop56
140
1.0
102
RTVSPost2010PropOp56
 70
     1
102
RTVSPost2010Prop57
140
1.0
102
RTVSPost2010PropOp57
 70
     1
  0
XRECORD
  5
35C
102
{ACAD_REACTORS
330
35B
102
}
330
35B
100
AcDbXrecord
280
     1
102
RTVSPropertyOp0
 70
     1
102
RTVSPropertyOp1
 70
     1
102
RTVSPropertyOp2
 70
     1
102
RTVSPropertyOp3
 70
     1
102
RTVSPropertyOp4
 70
     1
102
RTVSPropertyOp5
 70
     1
102
RTVSPropertyOp6
 70
     1
102
RTVSPropertyOp7
 70
     1
102
RTVSPropertyOp8
 70
     1
102
RTVSPropertyOp9
 70
     1
102
RTVSPropertyOp10
 70
     1
102
RTVSPropertyOp11
 70
     1
102
RTVSPropertyOp12
 70
     1
102
RTVSPropertyOp13
 70
     1
102
RTVSPropertyOp14
 70
     1
102
RTVSPropertyOp15
 70
     1
102
RTVSPropertyOp16
 70
     1
102
RTVSPropertyOp17
 70
     1
102
RTVSPropertyOp18
 70
     1
102
RTVSPropertyOp19
 70
     1
102
RTVSPropertyOp20
 70
     1
102
RTVSPropertyOp21
 70
     1
102
RTVSPropertyOp22
 70
     1
102
RTVSPropertyOp23
 70
     1
102
RTVSPropertyOp24
 70
     1
102
RTVSPropertyOp25
 70
     1
102
RTVSPropertyOp26
 70
     1
102
RTVSPropertyOp27
 70
     1
102
RTVSPropertyOp28
 70
     1
102
RTVSPropertyOp29
 70
     1
102
RTVSPropertyOp30
 70
     1
102
RTVSPropertyOp31
 70
     1
102
RTVSPropertyOp32
 70
     1
102
RTVSPropertyOp33
 70
     1
102
RTVSPropertyOp34
 70
     1
102
RTVSPropertyOp35
 70
     1
102
RTVSPropertyOp36
 70
     1
102
RTVSPropertyOp37
 70
     1
102
RTVSPropertyOp38
 70
     1
102
RTVSPropertyOp39
 70
     1
102
RTVSPropertyOp40
 70
     1
102
RTVSPropertyOp41
 70
     1
102
RTVSPropertyOp42
 70
     1
102
RTVSPropertyOp43
 70
     1
102
RTVSPropertyOp44
 70
     1
102
RTVSPropertyOp45
 70
     1
102
RTVSPropertyOp46
 70
     1
102
RTVSPropertyOp47
 70
     1
102
RTVSPropertyOp48
 70
     1
102
RTVSPropertyOp49
 70
     1
102
RTVSPropertyOp50
 70
     1
102
RTVSPropertyOp51
 70
     0
102
RTVSPropertyOp52
 70
     0
102
RTVSPropertyOp53
 70
     1
102
RTVSPropertyOp54
 70
     1
102
RTVSPropertyOp55
 70
     1
102
RTVSPropertyOp56
 70
     1
102
RTVSPropertyOp57
 70
     1
102
RTVSPost2010Prop28
280
     0
102
RTVSPost2010PropOp28
 70
     1
102
RTVSPost2010Prop29
280
     1
102
RTVSPost2010PropOp29
 70
     1
102
RTVSPost2010Prop30
280
     1
102
RTVSPost2010PropOp30
 70
     1
102
RTVSPost2010Prop31
280
     0
102
RTVSPost2010PropOp31
 70
     1
102
RTVSPost2010Prop32
280
     0
102
RTVSPost2010PropOp32
 70
     1
102
RTVSPost2010Prop33
280
     0
102
RTVSPost2010PropOp33
 70
     1
102
RTVSPost2010Prop34
280
     0
102
RTVSPost2010PropOp34
 70
     1
102
RTVSPost2010Prop35
280
     0
102
RTVSPost2010PropOp35
 70
     1
102
RTVSPost2010Prop36
280
     0
102
RTVSPost2010PropOp36
 70
     1
102
RTVSPost2010Prop37
 90
       50
102
RTVSPost2010PropOp37
 70
     1
102
RTVSPost2010Prop38
140
0.0
102
RTVSPost2010PropOp38
 70
     1
102
RTVSPost2010Prop39
140
1.0
102
RTVSPost2010PropOp39
 70
     1
102
RTVSPost2010Prop40
 90
        0
102
RTVSPost2010PropOp40
 70
     1
102
RTVSPost2010Prop41ColorIndex
 90
       18
102
RTVSPost2010Prop41ColorRGB
 90
        0
102
RTVSPost2010PropOp41
 70
     1
102
RTVSPost2010Prop42
 90
       50
102
RTVSPost2010PropOp42
 70
     1
102
RTVSPost2010Prop43
 90
        3
102
RTVSPost2010PropOp43
 70
     1
102
RTVSPost2010Prop44ColorIndex
 90
        5
102
RTVSPost2010Prop44ColorRGB
 90
      255
102
RTVSPost2010PropOp44
 70
     1
102
RTVSPost2010Prop45
280
     0
102
RTVSPost2010PropOp45
 70
     1
102
RTVSPost2010Prop46
 90
       50
102
RTVSPost2010PropOp46
 70
     1
102
RTVSPost2010Prop47
 90
       50
102
RTVSPost2010PropOp47
 70
     1
102
RTVSPost2010Prop48
 90
       50
102
RTVSPost2010PropOp48
 70
     1
102
RTVSPost2010Prop49
280
     0
102
RTVSPost2010PropOp49
 70
     1
102
RTVSPost2010Prop50
 90
       50
102
RTVSPost2010PropOp50
 70
     1
102
RTVSPost2010Prop51ColorIndex
 90
      256
102
RTVSPost2010Prop51ColorRGB
 90
-16777216
102
RTVSPost2010PropOp51
 70
     0
102
RTVSPost2010Prop52
140
1.0
102
RTVSPost2010PropOp52
 70
     0
102
RTVSPost2010Prop53
 90
        2
102
RTVSPost2010PropOp53
 70
     1
102
RTVSPost2010Prop54
  1
strokes_ogs.tif
102
RTVSPost2010PropOp54
 70
     1
102
RTVSPost2010Prop55
280
     0
102
RTVSPost2010PropOp55
 70
     1
102
RTVSPost2010Prop56
140
1.0
102
RTVSPost2010PropOp56
 70
     1
102
RTVSPost2010Prop57
140
1.0
102
RTVSPost2010PropOp57
 70
     1
  0
XRECORD
  5
364
102
{ACAD_REACTORS
330
363
102
}
330
363
100
AcDbXrecord
280
     1
102
RTVSPropertyOp0
 70
     1
102
RTVSPropertyOp1
 70
     1
102
RTVSPropertyOp2
 70
     1
102
RTVSPropertyOp3
 70
     1
102
RTVSPropertyOp4
 70
     1
102
RTVSPropertyOp5
 70
     1
102
RTVSPropertyOp6
 70
     1
102
RTVSPropertyOp7
 70
     1
102
RTVSPropertyOp8
 70
     1
102
RTVSPropertyOp9
 70
     1
102
RTVSPropertyOp10
 70
     1
102
RTVSPropertyOp11
 70
     1
102
RTVSPropertyOp12
 70
     1
102
RTVSPropertyOp13
 70
     1
102
RTVSPropertyOp14
 70
     1
102
RTVSPropertyOp15
 70
     1
102
RTVSPropertyOp16
 70
     1
102
RTVSPropertyOp17
 70
     1
102
RTVSPropertyOp18
 70
     1
102
RTVSPropertyOp19
 70
     1
102
RTVSPropertyOp20
 70
     1
102
RTVSPropertyOp21
 70
     1
102
RTVSPropertyOp22
 70
     1
102
RTVSPropertyOp23
 70
     1
102
RTVSPropertyOp24
 70
     1
102
RTVSPropertyOp25
 70
     1
102
RTVSPropertyOp26
 70
     1
102
RTVSPropertyOp27
 70
     1
102
RTVSPropertyOp28
 70
     1
102
RTVSPropertyOp29
 70
     1
102
RTVSPropertyOp30
 70
     1
102
RTVSPropertyOp31
 70
     1
102
RTVSPropertyOp32
 70
     1
102
RTVSPropertyOp33
 70
     1
102
RTVSPropertyOp34
 70
     1
102
RTVSPropertyOp35
 70
     1
102
RTVSPropertyOp36
 70
     1
102
RTVSPropertyOp37
 70
     1
102
RTVSPropertyOp38
 70
     1
102
RTVSPropertyOp39
 70
     1
102
RTVSPropertyOp40
 70
     1
102
RTVSPropertyOp41
 70
     1
102
RTVSPropertyOp42
 70
     1
102
RTVSPropertyOp43
 70
     1
102
RTVSPropertyOp44
 70
     1
102
RTVSPropertyOp45
 70
     1
102
RTVSPropertyOp46
 70
     1
102
RTVSPropertyOp47
 70
     1
102
RTVSPropertyOp48
 70
     1
102
RTVSPropertyOp49
 70
     1
102
RTVSPropertyOp50
 70
     1
102
RTVSPropertyOp51
 70
     0
102
RTVSPropertyOp52
 70
     0
102
RTVSPropertyOp53
 70
     1
102
RTVSPropertyOp54
 70
     1
102
RTVSPropertyOp55
 70
     1
102
RTVSPropertyOp56
 70
     1
102
RTVSPropertyOp57
 70
     1
102
RTVSPost2010Prop28
280
     0
102
RTVSPost2010PropOp28
 70
     1
102
RTVSPost2010Prop29
280
     1
102
RTVSPost2010PropOp29
 70
     1
102
RTVSPost2010Prop30
280
     1
102
RTVSPost2010PropOp30
 70
     1
102
RTVSPost2010Prop31
280
     0
102
RTVSPost2010PropOp31
 70
     1
102
RTVSPost2010Prop32
280
     0
102
RTVSPost2010PropOp32
 70
     1
102
RTVSPost2010Prop33
280
     0
102
RTVSPost2010PropOp33
 70
     1
102
RTVSPost2010Prop34
280
     0
102
RTVSPost2010PropOp34
 70
     1
102
RTVSPost2010Prop35
280
     0
102
RTVSPost2010PropOp35
 70
     1
102
RTVSPost2010Prop36
280
     0
102
RTVSPost2010PropOp36
 70
     1
102
RTVSPost2010Prop37
 90
       50
102
RTVSPost2010PropOp37
 70
     1
102
RTVSPost2010Prop38
140
0.0
102
RTVSPost2010PropOp38
 70
     1
102
RTVSPost2010Prop39
140
1.0
102
RTVSPost2010PropOp39
 70
     1
102
RTVSPost2010Prop40
 90
        0
102
RTVSPost2010PropOp40
 70
     1
102
RTVSPost2010Prop41ColorIndex
 90
       18
102
RTVSPost2010Prop41ColorRGB
 90
        0
102
RTVSPost2010PropOp41
 70
     1
102
RTVSPost2010Prop42
 90
       50
102
RTVSPost2010PropOp42
 70
     1
102
RTVSPost2010Prop43
 90
        3
102
RTVSPost2010PropOp43
 70
     1
102
RTVSPost2010Prop44ColorIndex
 90
        5
102
RTVSPost2010Prop44ColorRGB
 90
      255
102
RTVSPost2010PropOp44
 70
     1
102
RTVSPost2010Prop45
280
     0
102
RTVSPost2010PropOp45
 70
     1
102
RTVSPost2010Prop46
 90
       50
102
RTVSPost2010PropOp46
 70
     1
102
RTVSPost2010Prop47
 90
       50
102
RTVSPost2010PropOp47
 70
     1
102
RTVSPost2010Prop48
 90
       50
102
RTVSPost2010PropOp48
 70
     1
102
RTVSPost2010Prop49
280
     0
102
RTVSPost2010PropOp49
 70
     1
102
RTVSPost2010Prop50
 90
       50
102
RTVSPost2010PropOp50
 70
     1
102
RTVSPost2010Prop51ColorIndex
 90
      256
102
RTVSPost2010Prop51ColorRGB
 90
-16777216
102
RTVSPost2010PropOp51
 70
     0
102
RTVSPost2010Prop52
140
1.0
102
RTVSPost2010PropOp52
 70
     0
102
RTVSPost2010Prop53
 90
        2
102
RTVSPost2010PropOp53
 70
     1
102
RTVSPost2010Prop54
  1
strokes_ogs.tif
102
RTVSPost2010PropOp54
 70
     1
102
RTVSPost2010Prop55
280
     0
102
RTVSPost2010PropOp55
 70
     1
102
RTVSPost2010Prop56
140
1.0
102
RTVSPost2010PropOp56
 70
     1
102
RTVSPost2010Prop57
140
1.0
102
RTVSPost2010PropOp57
 70
     1
  0
XRECORD
  5
358
102
{ACAD_REACTORS
330
357
102
}
330
357
100
AcDbXrecord
280
     1
102
RTVSPropertyOp0
 70
     1
102
RTVSPropertyOp1
 70
     1
102
RTVSPropertyOp2
 70
     1
102
RTVSPropertyOp3
 70
     1
102
RTVSPropertyOp4
 70
     1
102
RTVSPropertyOp5
 70
     1
102
RTVSPropertyOp6
 70
     1
102
RTVSPropertyOp7
 70
     1
102
RTVSPropertyOp8
 70
     1
102
RTVSPropertyOp9
 70
     1
102
RTVSPropertyOp10
 70
     1
102
RTVSPropertyOp11
 70
     1
102
RTVSPropertyOp12
 70
     1
102
RTVSPropertyOp13
 70
     1
102
RTVSPropertyOp14
 70
     1
102
RTVSPropertyOp15
 70
     1
102
RTVSPropertyOp16
 70
     1
102
RTVSPropertyOp17
 70
     1
102
RTVSPropertyOp18
 70
     1
102
RTVSPropertyOp19
 70
     1
102
RTVSPropertyOp20
 70
     1
102
RTVSPropertyOp21
 70
     1
102
RTVSPropertyOp22
 70
     1
102
RTVSPropertyOp23
 70
     1
102
RTVSPropertyOp24
 70
     1
102
RTVSPropertyOp25
 70
     1
102
RTVSPropertyOp26
 70
     1
102
RTVSPropertyOp27
 70
     1
102
RTVSPropertyOp28
 70
     1
102
RTVSPropertyOp29
 70
     1
102
RTVSPropertyOp30
 70
     1
102
RTVSPropertyOp31
 70
     1
102
RTVSPropertyOp32
 70
     1
102
RTVSPropertyOp33
 70
     1
102
RTVSPropertyOp34
 70
     1
102
RTVSPropertyOp35
 70
     1
102
RTVSPropertyOp36
 70
     1
102
RTVSPropertyOp37
 70
     1
102
RTVSPropertyOp38
 70
     1
102
RTVSPropertyOp39
 70
     1
102
RTVSPropertyOp40
 70
     1
102
RTVSPropertyOp41
 70
     1
102
RTVSPropertyOp42
 70
     1
102
RTVSPropertyOp43
 70
     1
102
RTVSPropertyOp44
 70
     1
102
RTVSPropertyOp45
 70
     1
102
RTVSPropertyOp46
 70
     1
102
RTVSPropertyOp47
 70
     1
102
RTVSPropertyOp48
 70
     1
102
RTVSPropertyOp49
 70
     1
102
RTVSPropertyOp50
 70
     1
102
RTVSPropertyOp51
 70
     0
102
RTVSPropertyOp52
 70
     0
102
RTVSPropertyOp53
 70
     1
102
RTVSPropertyOp54
 70
     1
102
RTVSPropertyOp55
 70
     1
102
RTVSPropertyOp56
 70
     1
102
RTVSPropertyOp57
 70
     1
102
RTVSPost2010Prop28
280
     0
102
RTVSPost2010PropOp28
 70
     1
102
RTVSPost2010Prop29
280
     1
102
RTVSPost2010PropOp29
 70
     1
102
RTVSPost2010Prop30
280
     1
102
RTVSPost2010PropOp30
 70
     1
102
RTVSPost2010Prop31
280
     0
102
RTVSPost2010PropOp31
 70
     1
102
RTVSPost2010Prop32
280
     0
102
RTVSPost2010PropOp32
 70
     1
102
RTVSPost2010Prop33
280
     0
102
RTVSPost2010PropOp33
 70
     1
102
RTVSPost2010Prop34
280
     0
102
RTVSPost2010PropOp34
 70
     1
102
RTVSPost2010Prop35
280
     0
102
RTVSPost2010PropOp35
 70
     1
102
RTVSPost2010Prop36
280
     0
102
RTVSPost2010PropOp36
 70
     1
102
RTVSPost2010Prop37
 90
       50
102
RTVSPost2010PropOp37
 70
     1
102
RTVSPost2010Prop38
140
0.0
102
RTVSPost2010PropOp38
 70
     1
102
RTVSPost2010Prop39
140
1.0
102
RTVSPost2010PropOp39
 70
     1
102
RTVSPost2010Prop40
 90
        0
102
RTVSPost2010PropOp40
 70
     1
102
RTVSPost2010Prop41ColorIndex
 90
       18
102
RTVSPost2010Prop41ColorRGB
 90
        0
102
RTVSPost2010PropOp41
 70
     1
102
RTVSPost2010Prop42
 90
       50
102
RTVSPost2010PropOp42
 70
     1
102
RTVSPost2010Prop43
 90
        3
102
RTVSPost2010PropOp43
 70
     1
102
RTVSPost2010Prop44ColorIndex
 90
        5
102
RTVSPost2010Prop44ColorRGB
 90
      255
102
RTVSPost2010PropOp44
 70
     1
102
RTVSPost2010Prop45
280
     0
102
RTVSPost2010PropOp45
 70
     1
102
RTVSPost2010Prop46
 90
       50
102
RTVSPost2010PropOp46
 70
     1
102
RTVSPost2010Prop47
 90
       50
102
RTVSPost2010PropOp47
 70
     1
102
RTVSPost2010Prop48
 90
       50
102
RTVSPost2010PropOp48
 70
     1
102
RTVSPost2010Prop49
280
     0
102
RTVSPost2010PropOp49
 70
     1
102
RTVSPost2010Prop50
 90
       50
102
RTVSPost2010PropOp50
 70
     1
102
RTVSPost2010Prop51ColorIndex
 90
      256
102
RTVSPost2010Prop51ColorRGB
 90
-16777216
102
RTVSPost2010PropOp51
 70
     0
102
RTVSPost2010Prop52
140
1.0
102
RTVSPost2010PropOp52
 70
     0
102
RTVSPost2010Prop53
 90
        2
102
RTVSPost2010PropOp53
 70
     1
102
RTVSPost2010Prop54
  1
strokes_ogs.tif
102
RTVSPost2010PropOp54
 70
     1
102
RTVSPost2010Prop55
280
     0
102
RTVSPost2010PropOp55
 70
     1
102
RTVSPost2010Prop56
140
1.0
102
RTVSPost2010PropOp56
 70
     1
102
RTVSPost2010Prop57
140
1.0
102
RTVSPost2010PropOp57
 70
     1
  0
XRECORD
  5
35A
102
{ACAD_REACTORS
330
359
102
}
330
359
100
AcDbXrecord
280
     1
102
RTVSPropertyOp0
 70
     1
102
RTVSPropertyOp1
 70
     1
102
RTVSPropertyOp2
 70
     1
102
RTVSPropertyOp3
 70
     1
102
RTVSPropertyOp4
 70
     1
102
RTVSPropertyOp5
 70
     1
102
RTVSPropertyOp6
 70
     1
102
RTVSPropertyOp7
 70
     1
102
RTVSPropertyOp8
 70
     1
102
RTVSPropertyOp9
 70
     1
102
RTVSPropertyOp10
 70
     1
102
RTVSPropertyOp11
 70
     1
102
RTVSPropertyOp12
 70
     1
102
RTVSPropertyOp13
 70
     1
102
RTVSPropertyOp14
 70
     1
102
RTVSPropertyOp15
 70
     1
102
RTVSPropertyOp16
 70
     1
102
RTVSPropertyOp17
 70
     1
102
RTVSPropertyOp18
 70
     1
102
RTVSPropertyOp19
 70
     1
102
RTVSPropertyOp20
 70
     1
102
RTVSPropertyOp21
 70
     1
102
RTVSPropertyOp22
 70
     1
102
RTVSPropertyOp23
 70
     1
102
RTVSPropertyOp24
 70
     1
102
RTVSPropertyOp25
 70
     1
102
RTVSPropertyOp26
 70
     1
102
RTVSPropertyOp27
 70
     1
102
RTVSPropertyOp28
 70
     1
102
RTVSPropertyOp29
 70
     1
102
RTVSPropertyOp30
 70
     1
102
RTVSPropertyOp31
 70
     1
102
RTVSPropertyOp32
 70
     1
102
RTVSPropertyOp33
 70
     1
102
RTVSPropertyOp34
 70
     1
102
RTVSPropertyOp35
 70
     1
102
RTVSPropertyOp36
 70
     1
102
RTVSPropertyOp37
 70
     1
102
RTVSPropertyOp38
 70
     1
102
RTVSPropertyOp39
 70
     1
102
RTVSPropertyOp40
 70
     1
102
RTVSPropertyOp41
 70
     1
102
RTVSPropertyOp42
 70
     1
102
RTVSPropertyOp43
 70
     1
102
RTVSPropertyOp44
 70
     1
102
RTVSPropertyOp45
 70
     1
102
RTVSPropertyOp46
 70
     1
102
RTVSPropertyOp47
 70
     1
102
RTVSPropertyOp48
 70
     1
102
RTVSPropertyOp49
 70
     1
102
RTVSPropertyOp50
 70
     1
102
RTVSPropertyOp51
 70
     0
102
RTVSPropertyOp52
 70
     0
102
RTVSPropertyOp53
 70
     1
102
RTVSPropertyOp54
 70
     1
102
RTVSPropertyOp55
 70
     1
102
RTVSPropertyOp56
 70
     1
102
RTVSPropertyOp57
 70
     1
102
RTVSPost2010Prop28
280
     0
102
RTVSPost2010PropOp28
 70
     1
102
RTVSPost2010Prop29
280
     1
102
RTVSPost2010PropOp29
 70
     1
102
RTVSPost2010Prop30
280
     1
102
RTVSPost2010PropOp30
 70
     1
102
RTVSPost2010Prop31
280
     0
102
RTVSPost2010PropOp31
 70
     1
102
RTVSPost2010Prop32
280
     0
102
RTVSPost2010PropOp32
 70
     1
102
RTVSPost2010Prop33
280
     0
102
RTVSPost2010PropOp33
 70
     1
102
RTVSPost2010Prop34
280
     0
102
RTVSPost2010PropOp34
 70
     1
102
RTVSPost2010Prop35
280
     0
102
RTVSPost2010PropOp35
 70
     1
102
RTVSPost2010Prop36
280
     0
102
RTVSPost2010PropOp36
 70
     1
102
RTVSPost2010Prop37
 90
       50
102
RTVSPost2010PropOp37
 70
     1
102
RTVSPost2010Prop38
140
0.0
102
RTVSPost2010PropOp38
 70
     1
102
RTVSPost2010Prop39
140
1.0
102
RTVSPost2010PropOp39
 70
     1
102
RTVSPost2010Prop40
 90
        0
102
RTVSPost2010PropOp40
 70
     1
102
RTVSPost2010Prop41ColorIndex
 90
       18
102
RTVSPost2010Prop41ColorRGB
 90
        0
102
RTVSPost2010PropOp41
 70
     1
102
RTVSPost2010Prop42
 90
       50
102
RTVSPost2010PropOp42
 70
     1
102
RTVSPost2010Prop43
 90
        3
102
RTVSPost2010PropOp43
 70
     1
102
RTVSPost2010Prop44ColorIndex
 90
        5
102
RTVSPost2010Prop44ColorRGB
 90
      255
102
RTVSPost2010PropOp44
 70
     1
102
RTVSPost2010Prop45
280
     0
102
RTVSPost2010PropOp45
 70
     1
102
RTVSPost2010Prop46
 90
       50
102
RTVSPost2010PropOp46
 70
     1
102
RTVSPost2010Prop47
 90
       50
102
RTVSPost2010PropOp47
 70
     1
102
RTVSPost2010Prop48
 90
       50
102
RTVSPost2010PropOp48
 70
     1
102
RTVSPost2010Prop49
280
     0
102
RTVSPost2010PropOp49
 70
     1
102
RTVSPost2010Prop50
 90
       50
102
RTVSPost2010PropOp50
 70
     1
102
RTVSPost2010Prop51ColorIndex
 90
      256
102
RTVSPost2010Prop51ColorRGB
 90
-16777216
102
RTVSPost2010PropOp51
 70
     0
102
RTVSPost2010Prop52
140
1.0
102
RTVSPost2010PropOp52
 70
     0
102
RTVSPost2010Prop53
 90
        2
102
RTVSPost2010PropOp53
 70
     1
102
RTVSPost2010Prop54
  1
strokes_ogs.tif
102
RTVSPost2010PropOp54
 70
     1
102
RTVSPost2010Prop55
280
     0
102
RTVSPost2010PropOp55
 70
     1
102
RTVSPost2010Prop56
140
1.0
102
RTVSPost2010PropOp56
 70
     1
102
RTVSPost2010Prop57
140
1.0
102
RTVSPost2010PropOp57
 70
     1
  0
XRECORD
  5
36A
102
{ACAD_REACTORS
330
369
102
}
330
369
100
AcDbXrecord
280
     1
102
RTVSPropertyOp0
 70
     0
102
RTVSPropertyOp1
 70
     0
102
RTVSPropertyOp2
 70
     0
102
RTVSPropertyOp3
 70
     0
102
RTVSPropertyOp4
 70
     0
102
RTVSPropertyOp5
 70
     0
102
RTVSPropertyOp6
 70
     0
102
RTVSPropertyOp7
 70
     0
102
RTVSPropertyOp8
 70
     0
102
RTVSPropertyOp9
 70
     0
102
RTVSPropertyOp10
 70
     0
102
RTVSPropertyOp11
 70
     0
102
RTVSPropertyOp12
 70
     0
102
RTVSPropertyOp13
 70
     0
102
RTVSPropertyOp14
 70
     2
102
RTVSPropertyOp15
 70
     0
102
RTVSPropertyOp16
 70
     0
102
RTVSPropertyOp17
 70
     0
102
RTVSPropertyOp18
 70
     0
102
RTVSPropertyOp19
 70
     0
102
RTVSPropertyOp20
 70
     0
102
RTVSPropertyOp21
 70
     0
102
RTVSPropertyOp22
 70
     0
102
RTVSPropertyOp23
 70
     0
102
RTVSPropertyOp24
 70
     0
102
RTVSPropertyOp25
 70
     0
102
RTVSPropertyOp26
 70
     0
102
RTVSPropertyOp27
 70
     0
102
RTVSPropertyOp28
 70
     0
102
RTVSPropertyOp29
 70
     0
102
RTVSPropertyOp30
 70
     0
102
RTVSPropertyOp31
 70
     0
102
RTVSPropertyOp32
 70
     0
102
RTVSPropertyOp33
 70
     0
102
RTVSPropertyOp34
 70
     0
102
RTVSPropertyOp35
 70
     0
102
RTVSPropertyOp36
 70
     0
102
RTVSPropertyOp37
 70
     0
102
RTVSPropertyOp38
 70
     0
102
RTVSPropertyOp39
 70
     0
102
RTVSPropertyOp40
 70
     0
102
RTVSPropertyOp41
 70
     0
102
RTVSPropertyOp42
 70
     0
102
RTVSPropertyOp43
 70
     0
102
RTVSPropertyOp44
 70
     0
102
RTVSPropertyOp45
 70
     0
102
RTVSPropertyOp46
 70
     0
102
RTVSPropertyOp47
 70
     0
102
RTVSPropertyOp48
 70
     0
102
RTVSPropertyOp49
 70
     0
102
RTVSPropertyOp50
 70
     0
102
RTVSPropertyOp51
 70
     0
102
RTVSPropertyOp52
 70
     0
102
RTVSPropertyOp53
 70
     0
102
RTVSPropertyOp54
 70
     0
102
RTVSPropertyOp55
 70
     0
102
RTVSPropertyOp56
 70
     0
102
RTVSPropertyOp57
 70
     0
102
RTVSPost2010Prop28
280
     0
102
RTVSPost2010PropOp28
 70
     0
102
RTVSPost2010Prop29
280
     1
102
RTVSPost2010PropOp29
 70
     0
102
RTVSPost2010Prop30
280
     1
102
RTVSPost2010PropOp30
 70
     0
102
RTVSPost2010Prop31
280
     0
102
RTVSPost2010PropOp31
 70
     0
102
RTVSPost2010Prop32
280
     0
102
RTVSPost2010PropOp32
 70
     0
102
RTVSPost2010Prop33
280
     0
102
RTVSPost2010PropOp33
 70
     0
102
RTVSPost2010Prop34
280
     0
102
RTVSPost2010PropOp34
 70
     0
102
RTVSPost2010Prop35
280
     0
102
RTVSPost2010PropOp35
 70
     0
102
RTVSPost2010Prop36
280
     0
102
RTVSPost2010PropOp36
 70
     0
102
RTVSPost2010Prop37
 90
       50
102
RTVSPost2010PropOp37
 70
     0
102
RTVSPost2010Prop38
140
0.0
102
RTVSPost2010PropOp38
 70
     0
102
RTVSPost2010Prop39
140
1.0
102
RTVSPost2010PropOp39
 70
     0
102
RTVSPost2010Prop40
 90
        0
102
RTVSPost2010PropOp40
 70
     0
102
RTVSPost2010Prop41ColorIndex
 90
       18
102
RTVSPost2010Prop41ColorRGB
 90
        0
102
RTVSPost2010PropOp41
 70
     0
102
RTVSPost2010Prop42
 90
       50
102
RTVSPost2010PropOp42
 70
     0
102
RTVSPost2010Prop43
 90
        3
102
RTVSPost2010PropOp43
 70
     0
102
RTVSPost2010Prop44ColorIndex
 90
        5
102
RTVSPost2010Prop44ColorRGB
 90
      255
102
RTVSPost2010PropOp44
 70
     0
102
RTVSPost2010Prop45
280
     0
102
RTVSPost2010PropOp45
 70
     0
102
RTVSPost2010Prop46
 90
       50
102
RTVSPost2010PropOp46
 70
     0
102
RTVSPost2010Prop47
 90
       50
102
RTVSPost2010PropOp47
 70
     0
102
RTVSPost2010Prop48
 90
       50
102
RTVSPost2010PropOp48
 70
     0
102
RTVSPost2010Prop49
280
     0
102
RTVSPost2010PropOp49
 70
     0
102
RTVSPost2010Prop50
 90
       50
102
RTVSPost2010PropOp50
 70
     0
102
RTVSPost2010Prop51ColorIndex
 90
      256
102
RTVSPost2010Prop51ColorRGB
 90
-16777216
102
RTVSPost2010PropOp51
 70
     0
102
RTVSPost2010Prop52
140
1.0
102
RTVSPost2010PropOp52
 70
     0
102
RTVSPost2010Prop53
 90
        2
102
RTVSPost2010PropOp53
 70
     0
102
RTVSPost2010Prop54
  1
strokes_ogs.tif
102
RTVSPost2010PropOp54
 70
     0
102
RTVSPost2010Prop55
280
     0
102
RTVSPost2010PropOp55
 70
     0
102
RTVSPost2010Prop56
140
1.0
102
RTVSPost2010PropOp56
 70
     0
102
RTVSPost2010Prop57
140
1.0
102
RTVSPost2010PropOp57
 70
     0
  0
XRECORD
  5
362
102
{ACAD_REACTORS
330
361
102
}
330
361
100
AcDbXrecord
280
     1
102
RTVSPropertyOp0
 70
     1
102
RTVSPropertyOp1
 70
     1
102
RTVSPropertyOp2
 70
     1
102
RTVSPropertyOp3
 70
     1
102
RTVSPropertyOp4
 70
     1
102
RTVSPropertyOp5
 70
     1
102
RTVSPropertyOp6
 70
     1
102
RTVSPropertyOp7
 70
     1
102
RTVSPropertyOp8
 70
     1
102
RTVSPropertyOp9
 70
     1
102
RTVSPropertyOp10
 70
     1
102
RTVSPropertyOp11
 70
     1
102
RTVSPropertyOp12
 70
     1
102
RTVSPropertyOp13
 70
     1
102
RTVSPropertyOp14
 70
     1
102
RTVSPropertyOp15
 70
     1
102
RTVSPropertyOp16
 70
     1
102
RTVSPropertyOp17
 70
     1
102
RTVSPropertyOp18
 70
     1
102
RTVSPropertyOp19
 70
     1
102
RTVSPropertyOp20
 70
     1
102
RTVSPropertyOp21
 70
     1
102
RTVSPropertyOp22
 70
     1
102
RTVSPropertyOp23
 70
     1
102
RTVSPropertyOp24
 70
     1
102
RTVSPropertyOp25
 70
     1
102
RTVSPropertyOp26
 70
     1
102
RTVSPropertyOp27
 70
     1
102
RTVSPropertyOp28
 70
     1
102
RTVSPropertyOp29
 70
     1
102
RTVSPropertyOp30
 70
     1
102
RTVSPropertyOp31
 70
     1
102
RTVSPropertyOp32
 70
     1
102
RTVSPropertyOp33
 70
     1
102
RTVSPropertyOp34
 70
     1
102
RTVSPropertyOp35
 70
     1
102
RTVSPropertyOp36
 70
     1
102
RTVSPropertyOp37
 70
     1
102
RTVSPropertyOp38
 70
     1
102
RTVSPropertyOp39
 70
     1
102
RTVSPropertyOp40
 70
     1
102
RTVSPropertyOp41
 70
     1
102
RTVSPropertyOp42
 70
     1
102
RTVSPropertyOp43
 70
     1
102
RTVSPropertyOp44
 70
     1
102
RTVSPropertyOp45
 70
     1
102
RTVSPropertyOp46
 70
     1
102
RTVSPropertyOp47
 70
     1
102
RTVSPropertyOp48
 70
     1
102
RTVSPropertyOp49
 70
     1
102
RTVSPropertyOp50
 70
     1
102
RTVSPropertyOp51
 70
     0
102
RTVSPropertyOp52
 70
     0
102
RTVSPropertyOp53
 70
     1
102
RTVSPropertyOp54
 70
     1
102
RTVSPropertyOp55
 70
     1
102
RTVSPropertyOp56
 70
     1
102
RTVSPropertyOp57
 70
     1
102
RTVSPost2010Prop28
280
     0
102
RTVSPost2010PropOp28
 70
     1
102
RTVSPost2010Prop29
280
     1
102
RTVSPost2010PropOp29
 70
     1
102
RTVSPost2010Prop30
280
     1
102
RTVSPost2010PropOp30
 70
     1
102
RTVSPost2010Prop31
280
     0
102
RTVSPost2010PropOp31
 70
     1
102
RTVSPost2010Prop32
280
     0
102
RTVSPost2010PropOp32
 70
     1
102
RTVSPost2010Prop33
280
     0
102
RTVSPost2010PropOp33
 70
     1
102
RTVSPost2010Prop34
280
     0
102
RTVSPost2010PropOp34
 70
     1
102
RTVSPost2010Prop35
280
     0
102
RTVSPost2010PropOp35
 70
     1
102
RTVSPost2010Prop36
280
     0
102
RTVSPost2010PropOp36
 70
     1
102
RTVSPost2010Prop37
 90
       50
102
RTVSPost2010PropOp37
 70
     1
102
RTVSPost2010Prop38
140
0.0
102
RTVSPost2010PropOp38
 70
     1
102
RTVSPost2010Prop39
140
1.0
102
RTVSPost2010PropOp39
 70
     1
102
RTVSPost2010Prop40
 90
        0
102
RTVSPost2010PropOp40
 70
     1
102
RTVSPost2010Prop41ColorIndex
 90
       18
102
RTVSPost2010Prop41ColorRGB
 90
        0
102
RTVSPost2010PropOp41
 70
     1
102
RTVSPost2010Prop42
 90
       50
102
RTVSPost2010PropOp42
 70
     1
102
RTVSPost2010Prop43
 90
        3
102
RTVSPost2010PropOp43
 70
     1
102
RTVSPost2010Prop44ColorIndex
 90
        5
102
RTVSPost2010Prop44ColorRGB
 90
      255
102
RTVSPost2010PropOp44
 70
     1
102
RTVSPost2010Prop45
280
     0
102
RTVSPost2010PropOp45
 70
     1
102
RTVSPost2010Prop46
 90
       50
102
RTVSPost2010PropOp46
 70
     1
102
RTVSPost2010Prop47
 90
       50
102
RTVSPost2010PropOp47
 70
     1
102
RTVSPost2010Prop48
 90
       50
102
RTVSPost2010PropOp48
 70
     1
102
RTVSPost2010Prop49
280
     0
102
RTVSPost2010PropOp49
 70
     1
102
RTVSPost2010Prop50
 90
       50
102
RTVSPost2010PropOp50
 70
     1
102
RTVSPost2010Prop51ColorIndex
 90
      256
102
RTVSPost2010Prop51ColorRGB
 90
-16777216
102
RTVSPost2010PropOp51
 70
     0
102
RTVSPost2010Prop52
140
1.0
102
RTVSPost2010PropOp52
 70
     0
102
RTVSPost2010Prop53
 90
        2
102
RTVSPost2010PropOp53
 70
     1
102
RTVSPost2010Prop54
  1
strokes_ogs.tif
102
RTVSPost2010PropOp54
 70
     1
102
RTVSPost2010Prop55
280
     0
102
RTVSPost2010PropOp55
 70
     1
102
RTVSPost2010Prop56
140
1.0
102
RTVSPost2010PropOp56
 70
     1
102
RTVSPost2010Prop57
140
1.0
102
RTVSPost2010PropOp57
 70
     1
  0
XRECORD
  5
346
102
{ACAD_REACTORS
330
345
102
}
330
345
100
AcDbXrecord
280
     1
102
RTVSPropertyOp0
 70
     1
102
RTVSPropertyOp1
 70
     1
102
RTVSPropertyOp2
 70
     1
102
RTVSPropertyOp3
 70
     1
102
RTVSPropertyOp4
 70
     1
102
RTVSPropertyOp5
 70
     1
102
RTVSPropertyOp6
 70
     1
102
RTVSPropertyOp7
 70
     1
102
RTVSPropertyOp8
 70
     1
102
RTVSPropertyOp9
 70
     1
102
RTVSPropertyOp10
 70
     1
102
RTVSPropertyOp11
 70
     1
102
RTVSPropertyOp12
 70
     1
102
RTVSPropertyOp13
 70
     1
102
RTVSPropertyOp14
 70
     1
102
RTVSPropertyOp15
 70
     1
102
RTVSPropertyOp16
 70
     1
102
RTVSPropertyOp17
 70
     1
102
RTVSPropertyOp18
 70
     1
102
RTVSPropertyOp19
 70
     1
102
RTVSPropertyOp20
 70
     1
102
RTVSPropertyOp21
 70
     1
102
RTVSPropertyOp22
 70
     1
102
RTVSPropertyOp23
 70
     1
102
RTVSPropertyOp24
 70
     1
102
RTVSPropertyOp25
 70
     1
102
RTVSPropertyOp26
 70
     1
102
RTVSPropertyOp27
 70
     1
102
RTVSPropertyOp28
 70
     1
102
RTVSPropertyOp29
 70
     1
102
RTVSPropertyOp30
 70
     1
102
RTVSPropertyOp31
 70
     1
102
RTVSPropertyOp32
 70
     1
102
RTVSPropertyOp33
 70
     1
102
RTVSPropertyOp34
 70
     1
102
RTVSPropertyOp35
 70
     1
102
RTVSPropertyOp36
 70
     1
102
RTVSPropertyOp37
 70
     1
102
RTVSPropertyOp38
 70
     1
102
RTVSPropertyOp39
 70
     1
102
RTVSPropertyOp40
 70
     1
102
RTVSPropertyOp41
 70
     1
102
RTVSPropertyOp42
 70
     1
102
RTVSPropertyOp43
 70
     1
102
RTVSPropertyOp44
 70
     1
102
RTVSPropertyOp45
 70
     1
102
RTVSPropertyOp46
 70
     1
102
RTVSPropertyOp47
 70
     1
102
RTVSPropertyOp48
 70
     1
102
RTVSPropertyOp49
 70
     1
102
RTVSPropertyOp50
 70
     1
102
RTVSPropertyOp51
 70
     0
102
RTVSPropertyOp52
 70
     0
102
RTVSPropertyOp53
 70
     1
102
RTVSPropertyOp54
 70
     1
102
RTVSPropertyOp55
 70
     1
102
RTVSPropertyOp56
 70
     1
102
RTVSPropertyOp57
 70
     1
102
RTVSPost2010Prop28
280
     0
102
RTVSPost2010PropOp28
 70
     1
102
RTVSPost2010Prop29
280
     1
102
RTVSPost2010PropOp29
 70
     1
102
RTVSPost2010Prop30
280
     1
102
RTVSPost2010PropOp30
 70
     1
102
RTVSPost2010Prop31
280
     0
102
RTVSPost2010PropOp31
 70
     1
102
RTVSPost2010Prop32
280
     0
102
RTVSPost2010PropOp32
 70
     1
102
RTVSPost2010Prop33
280
     0
102
RTVSPost2010PropOp33
 70
     1
102
RTVSPost2010Prop34
280
     0
102
RTVSPost2010PropOp34
 70
     1
102
RTVSPost2010Prop35
280
     0
102
RTVSPost2010PropOp35
 70
     1
102
RTVSPost2010Prop36
280
     0
102
RTVSPost2010PropOp36
 70
     1
102
RTVSPost2010Prop37
 90
       50
102
RTVSPost2010PropOp37
 70
     1
102
RTVSPost2010Prop38
140
0.0
102
RTVSPost2010PropOp38
 70
     1
102
RTVSPost2010Prop39
140
1.0
102
RTVSPost2010PropOp39
 70
     1
102
RTVSPost2010Prop40
 90
        0
102
RTVSPost2010PropOp40
 70
     1
102
RTVSPost2010Prop41ColorIndex
 90
       18
102
RTVSPost2010Prop41ColorRGB
 90
        0
102
RTVSPost2010PropOp41
 70
     1
102
RTVSPost2010Prop42
 90
       50
102
RTVSPost2010PropOp42
 70
     1
102
RTVSPost2010Prop43
 90
        3
102
RTVSPost2010PropOp43
 70
     1
102
RTVSPost2010Prop44ColorIndex
 90
        5
102
RTVSPost2010Prop44ColorRGB
 90
      255
102
RTVSPost2010PropOp44
 70
     1
102
RTVSPost2010Prop45
280
     0
102
RTVSPost2010PropOp45
 70
     1
102
RTVSPost2010Prop46
 90
       50
102
RTVSPost2010PropOp46
 70
     1
102
RTVSPost2010Prop47
 90
       50
102
RTVSPost2010PropOp47
 70
     1
102
RTVSPost2010Prop48
 90
       50
102
RTVSPost2010PropOp48
 70
     1
102
RTVSPost2010Prop49
280
     0
102
RTVSPost2010PropOp49
 70
     1
102
RTVSPost2010Prop50
 90
       50
102
RTVSPost2010PropOp50
 70
     1
102
RTVSPost2010Prop51ColorIndex
 90
      256
102
RTVSPost2010Prop51ColorRGB
 90
-16777216
102
RTVSPost2010PropOp51
 70
     0
102
RTVSPost2010Prop52
140
1.0
102
RTVSPost2010PropOp52
 70
     0
102
RTVSPost2010Prop53
 90
        2
102
RTVSPost2010PropOp53
 70
     1
102
RTVSPost2010Prop54
  1
strokes_ogs.tif
102
RTVSPost2010PropOp54
 70
     1
102
RTVSPost2010Prop55
280
     0
102
RTVSPost2010PropOp55
 70
     1
102
RTVSPost2010Prop56
140
1.0
102
RTVSPost2010PropOp56
 70
     1
102
RTVSPost2010Prop57
140
1.0
102
RTVSPost2010PropOp57
 70
     1
  0
XRECORD
  5
348
102
{ACAD_REACTORS
330
347
102
}
330
347
100
AcDbXrecord
280
     1
102
RTVSPropertyOp0
 70
     1
102
RTVSPropertyOp1
 70
     1
102
RTVSPropertyOp2
 70
     1
102
RTVSPropertyOp3
 70
     1
102
RTVSPropertyOp4
 70
     1
102
RTVSPropertyOp5
 70
     1
102
RTVSPropertyOp6
 70
     1
102
RTVSPropertyOp7
 70
     1
102
RTVSPropertyOp8
 70
     1
102
RTVSPropertyOp9
 70
     1
102
RTVSPropertyOp10
 70
     1
102
RTVSPropertyOp11
 70
     1
102
RTVSPropertyOp12
 70
     1
102
RTVSPropertyOp13
 70
     1
102
RTVSPropertyOp14
 70
     1
102
RTVSPropertyOp15
 70
     1
102
RTVSPropertyOp16
 70
     1
102
RTVSPropertyOp17
 70
     1
102
RTVSPropertyOp18
 70
     1
102
RTVSPropertyOp19
 70
     1
102
RTVSPropertyOp20
 70
     1
102
RTVSPropertyOp21
 70
     1
102
RTVSPropertyOp22
 70
     1
102
RTVSPropertyOp23
 70
     1
102
RTVSPropertyOp24
 70
     1
102
RTVSPropertyOp25
 70
     1
102
RTVSPropertyOp26
 70
     1
102
RTVSPropertyOp27
 70
     1
102
RTVSPropertyOp28
 70
     1
102
RTVSPropertyOp29
 70
     1
102
RTVSPropertyOp30
 70
     1
102
RTVSPropertyOp31
 70
     1
102
RTVSPropertyOp32
 70
     1
102
RTVSPropertyOp33
 70
     1
102
RTVSPropertyOp34
 70
     1
102
RTVSPropertyOp35
 70
     1
102
RTVSPropertyOp36
 70
     1
102
RTVSPropertyOp37
 70
     1
102
RTVSPropertyOp38
 70
     1
102
RTVSPropertyOp39
 70
     1
102
RTVSPropertyOp40
 70
     1
102
RTVSPropertyOp41
 70
     1
102
RTVSPropertyOp42
 70
     1
102
RTVSPropertyOp43
 70
     1
102
RTVSPropertyOp44
 70
     1
102
RTVSPropertyOp45
 70
     1
102
RTVSPropertyOp46
 70
     1
102
RTVSPropertyOp47
 70
     1
102
RTVSPropertyOp48
 70
     1
102
RTVSPropertyOp49
 70
     1
102
RTVSPropertyOp50
 70
     1
102
RTVSPropertyOp51
 70
     0
102
RTVSPropertyOp52
 70
     0
102
RTVSPropertyOp53
 70
     1
102
RTVSPropertyOp54
 70
     1
102
RTVSPropertyOp55
 70
     1
102
RTVSPropertyOp56
 70
     1
102
RTVSPropertyOp57
 70
     1
102
RTVSPost2010Prop28
280
     0
102
RTVSPost2010PropOp28
 70
     1
102
RTVSPost2010Prop29
280
     1
102
RTVSPost2010PropOp29
 70
     1
102
RTVSPost2010Prop30
280
     1
102
RTVSPost2010PropOp30
 70
     1
102
RTVSPost2010Prop31
280
     0
102
RTVSPost2010PropOp31
 70
     1
102
RTVSPost2010Prop32
280
     0
102
RTVSPost2010PropOp32
 70
     1
102
RTVSPost2010Prop33
280
     0
102
RTVSPost2010PropOp33
 70
     1
102
RTVSPost2010Prop34
280
     0
102
RTVSPost2010PropOp34
 70
     1
102
RTVSPost2010Prop35
280
     0
102
RTVSPost2010PropOp35
 70
     1
102
RTVSPost2010Prop36
280
     0
102
RTVSPost2010PropOp36
 70
     1
102
RTVSPost2010Prop37
 90
       50
102
RTVSPost2010PropOp37
 70
     1
102
RTVSPost2010Prop38
140
0.0
102
RTVSPost2010PropOp38
 70
     1
102
RTVSPost2010Prop39
140
1.0
102
RTVSPost2010PropOp39
 70
     1
102
RTVSPost2010Prop40
 90
        0
102
RTVSPost2010PropOp40
 70
     1
102
RTVSPost2010Prop41ColorIndex
 90
       18
102
RTVSPost2010Prop41ColorRGB
 90
        0
102
RTVSPost2010PropOp41
 70
     1
102
RTVSPost2010Prop42
 90
       50
102
RTVSPost2010PropOp42
 70
     1
102
RTVSPost2010Prop43
 90
        3
102
RTVSPost2010PropOp43
 70
     1
102
RTVSPost2010Prop44ColorIndex
 90
        5
102
RTVSPost2010Prop44ColorRGB
 90
      255
102
RTVSPost2010PropOp44
 70
     1
102
RTVSPost2010Prop45
280
     0
102
RTVSPost2010PropOp45
 70
     1
102
RTVSPost2010Prop46
 90
       50
102
RTVSPost2010PropOp46
 70
     1
102
RTVSPost2010Prop47
 90
       50
102
RTVSPost2010PropOp47
 70
     1
102
RTVSPost2010Prop48
 90
       50
102
RTVSPost2010PropOp48
 70
     1
102
RTVSPost2010Prop49
280
     0
102
RTVSPost2010PropOp49
 70
     1
102
RTVSPost2010Prop50
 90
       50
102
RTVSPost2010PropOp50
 70
     1
102
RTVSPost2010Prop51ColorIndex
 90
      256
102
RTVSPost2010Prop51ColorRGB
 90
-16777216
102
RTVSPost2010PropOp51
 70
     0
102
RTVSPost2010Prop52
140
1.0
102
RTVSPost2010PropOp52
 70
     0
102
RTVSPost2010Prop53
 90
        2
102
RTVSPost2010PropOp53
 70
     1
102
RTVSPost2010Prop54
  1
strokes_ogs.tif
102
RTVSPost2010PropOp54
 70
     1
102
RTVSPost2010Prop55
280
     0
102
RTVSPost2010PropOp55
 70
     1
102
RTVSPost2010Prop56
140
1.0
102
RTVSPost2010PropOp56
 70
     1
102
RTVSPost2010Prop57
140
1.0
102
RTVSPost2010PropOp57
 70
     1
  0
XRECORD
  5
34A
102
{ACAD_REACTORS
330
349
102
}
330
349
100
AcDbXrecord
280
     1
102
RTVSPropertyOp0
 70
     1
102
RTVSPropertyOp1
 70
     1
102
RTVSPropertyOp2
 70
     1
102
RTVSPropertyOp3
 70
     1
102
RTVSPropertyOp4
 70
     1
102
RTVSPropertyOp5
 70
     1
102
RTVSPropertyOp6
 70
     1
102
RTVSPropertyOp7
 70
     1
102
RTVSPropertyOp8
 70
     1
102
RTVSPropertyOp9
 70
     1
102
RTVSPropertyOp10
 70
     1
102
RTVSPropertyOp11
 70
     1
102
RTVSPropertyOp12
 70
     1
102
RTVSPropertyOp13
 70
     1
102
RTVSPropertyOp14
 70
     1
102
RTVSPropertyOp15
 70
     1
102
RTVSPropertyOp16
 70
     1
102
RTVSPropertyOp17
 70
     1
102
RTVSPropertyOp18
 70
     1
102
RTVSPropertyOp19
 70
     1
102
RTVSPropertyOp20
 70
     1
102
RTVSPropertyOp21
 70
     1
102
RTVSPropertyOp22
 70
     1
102
RTVSPropertyOp23
 70
     1
102
RTVSPropertyOp24
 70
     1
102
RTVSPropertyOp25
 70
     1
102
RTVSPropertyOp26
 70
     1
102
RTVSPropertyOp27
 70
     1
102
RTVSPropertyOp28
 70
     1
102
RTVSPropertyOp29
 70
     1
102
RTVSPropertyOp30
 70
     1
102
RTVSPropertyOp31
 70
     1
102
RTVSPropertyOp32
 70
     1
102
RTVSPropertyOp33
 70
     1
102
RTVSPropertyOp34
 70
     1
102
RTVSPropertyOp35
 70
     1
102
RTVSPropertyOp36
 70
     1
102
RTVSPropertyOp37
 70
     1
102
RTVSPropertyOp38
 70
     1
102
RTVSPropertyOp39
 70
     1
102
RTVSPropertyOp40
 70
     1
102
RTVSPropertyOp41
 70
     1
102
RTVSPropertyOp42
 70
     1
102
RTVSPropertyOp43
 70
     1
102
RTVSPropertyOp44
 70
     1
102
RTVSPropertyOp45
 70
     1
102
RTVSPropertyOp46
 70
     1
102
RTVSPropertyOp47
 70
     1
102
RTVSPropertyOp48
 70
     1
102
RTVSPropertyOp49
 70
     1
102
RTVSPropertyOp50
 70
     1
102
RTVSPropertyOp51
 70
     0
102
RTVSPropertyOp52
 70
     0
102
RTVSPropertyOp53
 70
     1
102
RTVSPropertyOp54
 70
     1
102
RTVSPropertyOp55
 70
     1
102
RTVSPropertyOp56
 70
     1
102
RTVSPropertyOp57
 70
     1
102
RTVSPost2010Prop28
280
     0
102
RTVSPost2010PropOp28
 70
     1
102
RTVSPost2010Prop29
280
     1
102
RTVSPost2010PropOp29
 70
     1
102
RTVSPost2010Prop30
280
     1
102
RTVSPost2010PropOp30
 70
     1
102
RTVSPost2010Prop31
280
     0
102
RTVSPost2010PropOp31
 70
     1
102
RTVSPost2010Prop32
280
     0
102
RTVSPost2010PropOp32
 70
     1
102
RTVSPost2010Prop33
280
     0
102
RTVSPost2010PropOp33
 70
     1
102
RTVSPost2010Prop34
280
     0
102
RTVSPost2010PropOp34
 70
     1
102
RTVSPost2010Prop35
280
     0
102
RTVSPost2010PropOp35
 70
     1
102
RTVSPost2010Prop36
280
     0
102
RTVSPost2010PropOp36
 70
     1
102
RTVSPost2010Prop37
 90
       50
102
RTVSPost2010PropOp37
 70
     1
102
RTVSPost2010Prop38
140
0.0
102
RTVSPost2010PropOp38
 70
     1
102
RTVSPost2010Prop39
140
1.0
102
RTVSPost2010PropOp39
 70
     1
102
RTVSPost2010Prop40
 90
        0
102
RTVSPost2010PropOp40
 70
     1
102
RTVSPost2010Prop41ColorIndex
 90
       18
102
RTVSPost2010Prop41ColorRGB
 90
        0
102
RTVSPost2010PropOp41
 70
     1
102
RTVSPost2010Prop42
 90
       50
102
RTVSPost2010PropOp42
 70
     1
102
RTVSPost2010Prop43
 90
        3
102
RTVSPost2010PropOp43
 70
     1
102
RTVSPost2010Prop44ColorIndex
 90
        5
102
RTVSPost2010Prop44ColorRGB
 90
      255
102
RTVSPost2010PropOp44
 70
     1
102
RTVSPost2010Prop45
280
     0
102
RTVSPost2010PropOp45
 70
     1
102
RTVSPost2010Prop46
 90
       50
102
RTVSPost2010PropOp46
 70
     1
102
RTVSPost2010Prop47
 90
       50
102
RTVSPost2010PropOp47
 70
     1
102
RTVSPost2010Prop48
 90
       50
102
RTVSPost2010PropOp48
 70
     1
102
RTVSPost2010Prop49
280
     0
102
RTVSPost2010PropOp49
 70
     1
102
RTVSPost2010Prop50
 90
       50
102
RTVSPost2010PropOp50
 70
     1
102
RTVSPost2010Prop51ColorIndex
 90
      256
102
RTVSPost2010Prop51ColorRGB
 90
-16777216
102
RTVSPost2010PropOp51
 70
     0
102
RTVSPost2010Prop52
140
1.0
102
RTVSPost2010PropOp52
 70
     0
102
RTVSPost2010Prop53
 90
        2
102
RTVSPost2010PropOp53
 70
     1
102
RTVSPost2010Prop54
  1
strokes_ogs.tif
102
RTVSPost2010PropOp54
 70
     1
102
RTVSPost2010Prop55
280
     0
102
RTVSPost2010PropOp55
 70
     1
102
RTVSPost2010Prop56
140
1.0
102
RTVSPost2010PropOp56
 70
     1
102
RTVSPost2010Prop57
140
1.0
102
RTVSPost2010PropOp57
 70
     1
  0
XRECORD
  5
34C
102
{ACAD_REACTORS
330
34B
102
}
330
34B
100
AcDbXrecord
280
     1
102
RTVSPropertyOp0
 70
     1
102
RTVSPropertyOp1
 70
     1
102
RTVSPropertyOp2
 70
     1
102
RTVSPropertyOp3
 70
     1
102
RTVSPropertyOp4
 70
     1
102
RTVSPropertyOp5
 70
     1
102
RTVSPropertyOp6
 70
     1
102
RTVSPropertyOp7
 70
     1
102
RTVSPropertyOp8
 70
     1
102
RTVSPropertyOp9
 70
     1
102
RTVSPropertyOp10
 70
     1
102
RTVSPropertyOp11
 70
     1
102
RTVSPropertyOp12
 70
     1
102
RTVSPropertyOp13
 70
     1
102
RTVSPropertyOp14
 70
     1
102
RTVSPropertyOp15
 70
     1
102
RTVSPropertyOp16
 70
     1
102
RTVSPropertyOp17
 70
     1
102
RTVSPropertyOp18
 70
     1
102
RTVSPropertyOp19
 70
     1
102
RTVSPropertyOp20
 70
     1
102
RTVSPropertyOp21
 70
     1
102
RTVSPropertyOp22
 70
     1
102
RTVSPropertyOp23
 70
     1
102
RTVSPropertyOp24
 70
     1
102
RTVSPropertyOp25
 70
     1
102
RTVSPropertyOp26
 70
     1
102
RTVSPropertyOp27
 70
     1
102
RTVSPropertyOp28
 70
     1
102
RTVSPropertyOp29
 70
     1
102
RTVSPropertyOp30
 70
     1
102
RTVSPropertyOp31
 70
     1
102
RTVSPropertyOp32
 70
     1
102
RTVSPropertyOp33
 70
     1
102
RTVSPropertyOp34
 70
     1
102
RTVSPropertyOp35
 70
     1
102
RTVSPropertyOp36
 70
     1
102
RTVSPropertyOp37
 70
     1
102
RTVSPropertyOp38
 70
     1
102
RTVSPropertyOp39
 70
     1
102
RTVSPropertyOp40
 70
     1
102
RTVSPropertyOp41
 70
     1
102
RTVSPropertyOp42
 70
     1
102
RTVSPropertyOp43
 70
     1
102
RTVSPropertyOp44
 70
     1
102
RTVSPropertyOp45
 70
     1
102
RTVSPropertyOp46
 70
     1
102
RTVSPropertyOp47
 70
     1
102
RTVSPropertyOp48
 70
     1
102
RTVSPropertyOp49
 70
     1
102
RTVSPropertyOp50
 70
     1
102
RTVSPropertyOp51
 70
     0
102
RTVSPropertyOp52
 70
     0
102
RTVSPropertyOp53
 70
     1
102
RTVSPropertyOp54
 70
     1
102
RTVSPropertyOp55
 70
     1
102
RTVSPropertyOp56
 70
     1
102
RTVSPropertyOp57
 70
     1
102
RTVSPost2010Prop28
280
     0
102
RTVSPost2010PropOp28
 70
     1
102
RTVSPost2010Prop29
280
     1
102
RTVSPost2010PropOp29
 70
     1
102
RTVSPost2010Prop30
280
     1
102
RTVSPost2010PropOp30
 70
     1
102
RTVSPost2010Prop31
280
     0
102
RTVSPost2010PropOp31
 70
     1
102
RTVSPost2010Prop32
280
     0
102
RTVSPost2010PropOp32
 70
     1
102
RTVSPost2010Prop33
280
     0
102
RTVSPost2010PropOp33
 70
     1
102
RTVSPost2010Prop34
280
     0
102
RTVSPost2010PropOp34
 70
     1
102
RTVSPost2010Prop35
280
     0
102
RTVSPost2010PropOp35
 70
     1
102
RTVSPost2010Prop36
280
     0
102
RTVSPost2010PropOp36
 70
     1
102
RTVSPost2010Prop37
 90
       50
102
RTVSPost2010PropOp37
 70
     1
102
RTVSPost2010Prop38
140
0.0
102
RTVSPost2010PropOp38
 70
     1
102
RTVSPost2010Prop39
140
1.0
102
RTVSPost2010PropOp39
 70
     1
102
RTVSPost2010Prop40
 90
        0
102
RTVSPost2010PropOp40
 70
     1
102
RTVSPost2010Prop41ColorIndex
 90
       18
102
RTVSPost2010Prop41ColorRGB
 90
        0
102
RTVSPost2010PropOp41
 70
     1
102
RTVSPost2010Prop42
 90
       50
102
RTVSPost2010PropOp42
 70
     1
102
RTVSPost2010Prop43
 90
        3
102
RTVSPost2010PropOp43
 70
     1
102
RTVSPost2010Prop44ColorIndex
 90
        5
102
RTVSPost2010Prop44ColorRGB
 90
      255
102
RTVSPost2010PropOp44
 70
     1
102
RTVSPost2010Prop45
280
     0
102
RTVSPost2010PropOp45
 70
     1
102
RTVSPost2010Prop46
 90
       50
102
RTVSPost2010PropOp46
 70
     1
102
RTVSPost2010Prop47
 90
       50
102
RTVSPost2010PropOp47
 70
     1
102
RTVSPost2010Prop48
 90
       50
102
RTVSPost2010PropOp48
 70
     1
102
RTVSPost2010Prop49
280
     0
102
RTVSPost2010PropOp49
 70
     1
102
RTVSPost2010Prop50
 90
       50
102
RTVSPost2010PropOp50
 70
     1
102
RTVSPost2010Prop51ColorIndex
 90
      256
102
RTVSPost2010Prop51ColorRGB
 90
-16777216
102
RTVSPost2010PropOp51
 70
     0
102
RTVSPost2010Prop52
140
1.0
102
RTVSPost2010PropOp52
 70
     0
102
RTVSPost2010Prop53
 90
        2
102
RTVSPost2010PropOp53
 70
     1
102
RTVSPost2010Prop54
  1
strokes_ogs.tif
102
RTVSPost2010PropOp54
 70
     1
102
RTVSPost2010Prop55
280
     0
102
RTVSPost2010PropOp55
 70
     1
102
RTVSPost2010Prop56
140
1.0
102
RTVSPost2010PropOp56
 70
     1
102
RTVSPost2010Prop57
140
1.0
102
RTVSPost2010PropOp57
 70
     1
  0
XRECORD
  5
352
102
{ACAD_REACTORS
330
351
102
}
330
351
100
AcDbXrecord
280
     1
102
RTVSPropertyOp0
 70
     1
102
RTVSPropertyOp1
 70
     1
102
RTVSPropertyOp2
 70
     1
102
RTVSPropertyOp3
 70
     1
102
RTVSPropertyOp4
 70
     1
102
RTVSPropertyOp5
 70
     1
102
RTVSPropertyOp6
 70
     1
102
RTVSPropertyOp7
 70
     1
102
RTVSPropertyOp8
 70
     1
102
RTVSPropertyOp9
 70
     1
102
RTVSPropertyOp10
 70
     1
102
RTVSPropertyOp11
 70
     1
102
RTVSPropertyOp12
 70
     1
102
RTVSPropertyOp13
 70
     1
102
RTVSPropertyOp14
 70
     1
102
RTVSPropertyOp15
 70
     1
102
RTVSPropertyOp16
 70
     1
102
RTVSPropertyOp17
 70
     1
102
RTVSPropertyOp18
 70
     1
102
RTVSPropertyOp19
 70
     1
102
RTVSPropertyOp20
 70
     1
102
RTVSPropertyOp21
 70
     1
102
RTVSPropertyOp22
 70
     1
102
RTVSPropertyOp23
 70
     1
102
RTVSPropertyOp24
 70
     1
102
RTVSPropertyOp25
 70
     1
102
RTVSPropertyOp26
 70
     1
102
RTVSPropertyOp27
 70
     1
102
RTVSPropertyOp28
 70
     1
102
RTVSPropertyOp29
 70
     1
102
RTVSPropertyOp30
 70
     1
102
RTVSPropertyOp31
 70
     1
102
RTVSPropertyOp32
 70
     1
102
RTVSPropertyOp33
 70
     1
102
RTVSPropertyOp34
 70
     1
102
RTVSPropertyOp35
 70
     1
102
RTVSPropertyOp36
 70
     1
102
RTVSPropertyOp37
 70
     1
102
RTVSPropertyOp38
 70
     1
102
RTVSPropertyOp39
 70
     1
102
RTVSPropertyOp40
 70
     1
102
RTVSPropertyOp41
 70
     1
102
RTVSPropertyOp42
 70
     1
102
RTVSPropertyOp43
 70
     1
102
RTVSPropertyOp44
 70
     1
102
RTVSPropertyOp45
 70
     1
102
RTVSPropertyOp46
 70
     1
102
RTVSPropertyOp47
 70
     1
102
RTVSPropertyOp48
 70
     1
102
RTVSPropertyOp49
 70
     1
102
RTVSPropertyOp50
 70
     1
102
RTVSPropertyOp51
 70
     0
102
RTVSPropertyOp52
 70
     0
102
RTVSPropertyOp53
 70
     1
102
RTVSPropertyOp54
 70
     1
102
RTVSPropertyOp55
 70
     1
102
RTVSPropertyOp56
 70
     1
102
RTVSPropertyOp57
 70
     1
102
RTVSPost2010Prop28
280
     0
102
RTVSPost2010PropOp28
 70
     1
102
RTVSPost2010Prop29
280
     1
102
RTVSPost2010PropOp29
 70
     1
102
RTVSPost2010Prop30
280
     1
102
RTVSPost2010PropOp30
 70
     1
102
RTVSPost2010Prop31
280
     0
102
RTVSPost2010PropOp31
 70
     1
102
RTVSPost2010Prop32
280
     0
102
RTVSPost2010PropOp32
 70
     1
102
RTVSPost2010Prop33
280
     0
102
RTVSPost2010PropOp33
 70
     1
102
RTVSPost2010Prop34
280
     0
102
RTVSPost2010PropOp34
 70
     1
102
RTVSPost2010Prop35
280
     0
102
RTVSPost2010PropOp35
 70
     1
102
RTVSPost2010Prop36
280
     0
102
RTVSPost2010PropOp36
 70
     1
102
RTVSPost2010Prop37
 90
       50
102
RTVSPost2010PropOp37
 70
     1
102
RTVSPost2010Prop38
140
0.0
102
RTVSPost2010PropOp38
 70
     1
102
RTVSPost2010Prop39
140
1.0
102
RTVSPost2010PropOp39
 70
     1
102
RTVSPost2010Prop40
 90
        0
102
RTVSPost2010PropOp40
 70
     1
102
RTVSPost2010Prop41ColorIndex
 90
       18
102
RTVSPost2010Prop41ColorRGB
 90
        0
102
RTVSPost2010PropOp41
 70
     1
102
RTVSPost2010Prop42
 90
       50
102
RTVSPost2010PropOp42
 70
     1
102
RTVSPost2010Prop43
 90
        3
102
RTVSPost2010PropOp43
 70
     1
102
RTVSPost2010Prop44ColorIndex
 90
        5
102
RTVSPost2010Prop44ColorRGB
 90
      255
102
RTVSPost2010PropOp44
 70
     1
102
RTVSPost2010Prop45
280
     0
102
RTVSPost2010PropOp45
 70
     1
102
RTVSPost2010Prop46
 90
       50
102
RTVSPost2010PropOp46
 70
     1
102
RTVSPost2010Prop47
 90
       50
102
RTVSPost2010PropOp47
 70
     1
102
RTVSPost2010Prop48
 90
       50
102
RTVSPost2010PropOp48
 70
     1
102
RTVSPost2010Prop49
280
     0
102
RTVSPost2010PropOp49
 70
     1
102
RTVSPost2010Prop50
 90
       50
102
RTVSPost2010PropOp50
 70
     1
102
RTVSPost2010Prop51ColorIndex
 90
      256
102
RTVSPost2010Prop51ColorRGB
 90
-16777216
102
RTVSPost2010PropOp51
 70
     0
102
RTVSPost2010Prop52
140
1.0
102
RTVSPost2010PropOp52
 70
     0
102
RTVSPost2010Prop53
 90
        2
102
RTVSPost2010PropOp53
 70
     1
102
RTVSPost2010Prop54
  1
strokes_ogs.tif
102
RTVSPost2010PropOp54
 70
     1
102
RTVSPost2010Prop55
280
     0
102
RTVSPost2010PropOp55
 70
     1
102
RTVSPost2010Prop56
140
1.0
102
RTVSPost2010PropOp56
 70
     1
102
RTVSPost2010Prop57
140
1.0
102
RTVSPost2010PropOp57
 70
     1
  0
XRECORD
  5
366
102
{ACAD_REACTORS
330
365
102
}
330
365
100
AcDbXrecord
280
     1
102
RTVSPropertyOp0
 70
     0
102
RTVSPropertyOp1
 70
     0
102
RTVSPropertyOp2
 70
     0
102
RTVSPropertyOp3
 70
     0
102
RTVSPropertyOp4
 70
     0
102
RTVSPropertyOp5
 70
     0
102
RTVSPropertyOp6
 70
     0
102
RTVSPropertyOp7
 70
     0
102
RTVSPropertyOp8
 70
     0
102
RTVSPropertyOp9
 70
     0
102
RTVSPropertyOp10
 70
     0
102
RTVSPropertyOp11
 70
     0
102
RTVSPropertyOp12
 70
     0
102
RTVSPropertyOp13
 70
     0
102
RTVSPropertyOp14
 70
     2
102
RTVSPropertyOp15
 70
     0
102
RTVSPropertyOp16
 70
     0
102
RTVSPropertyOp17
 70
     0
102
RTVSPropertyOp18
 70
     0
102
RTVSPropertyOp19
 70
     0
102
RTVSPropertyOp20
 70
     0
102
RTVSPropertyOp21
 70
     0
102
RTVSPropertyOp22
 70
     0
102
RTVSPropertyOp23
 70
     0
102
RTVSPropertyOp24
 70
     0
102
RTVSPropertyOp25
 70
     0
102
RTVSPropertyOp26
 70
     0
102
RTVSPropertyOp27
 70
     0
102
RTVSPropertyOp28
 70
     0
102
RTVSPropertyOp29
 70
     0
102
RTVSPropertyOp30
 70
     0
102
RTVSPropertyOp31
 70
     0
102
RTVSPropertyOp32
 70
     0
102
RTVSPropertyOp33
 70
     0
102
RTVSPropertyOp34
 70
     0
102
RTVSPropertyOp35
 70
     0
102
RTVSPropertyOp36
 70
     0
102
RTVSPropertyOp37
 70
     0
102
RTVSPropertyOp38
 70
     0
102
RTVSPropertyOp39
 70
     0
102
RTVSPropertyOp40
 70
     0
102
RTVSPropertyOp41
 70
     0
102
RTVSPropertyOp42
 70
     0
102
RTVSPropertyOp43
 70
     0
102
RTVSPropertyOp44
 70
     0
102
RTVSPropertyOp45
 70
     0
102
RTVSPropertyOp46
 70
     0
102
RTVSPropertyOp47
 70
     0
102
RTVSPropertyOp48
 70
     0
102
RTVSPropertyOp49
 70
     0
102
RTVSPropertyOp50
 70
     0
102
RTVSPropertyOp51
 70
     0
102
RTVSPropertyOp52
 70
     0
102
RTVSPropertyOp53
 70
     0
102
RTVSPropertyOp54
 70
     0
102
RTVSPropertyOp55
 70
     0
102
RTVSPropertyOp56
 70
     0
102
RTVSPropertyOp57
 70
     0
102
RTVSPost2010Prop28
280
     0
102
RTVSPost2010PropOp28
 70
     0
102
RTVSPost2010Prop29
280
     1
102
RTVSPost2010PropOp29
 70
     0
102
RTVSPost2010Prop30
280
     1
102
RTVSPost2010PropOp30
 70
     0
102
RTVSPost2010Prop31
280
     0
102
RTVSPost2010PropOp31
 70
     0
102
RTVSPost2010Prop32
280
     0
102
RTVSPost2010PropOp32
 70
     0
102
RTVSPost2010Prop33
280
     0
102
RTVSPost2010PropOp33
 70
     0
102
RTVSPost2010Prop34
280
     0
102
RTVSPost2010PropOp34
 70
     0
102
RTVSPost2010Prop35
280
     0
102
RTVSPost2010PropOp35
 70
     0
102
RTVSPost2010Prop36
280
     0
102
RTVSPost2010PropOp36
 70
     0
102
RTVSPost2010Prop37
 90
       50
102
RTVSPost2010PropOp37
 70
     0
102
RTVSPost2010Prop38
140
0.0
102
RTVSPost2010PropOp38
 70
     0
102
RTVSPost2010Prop39
140
1.0
102
RTVSPost2010PropOp39
 70
     0
102
RTVSPost2010Prop40
 90
        0
102
RTVSPost2010PropOp40
 70
     0
102
RTVSPost2010Prop41ColorIndex
 90
       18
102
RTVSPost2010Prop41ColorRGB
 90
        0
102
RTVSPost2010PropOp41
 70
     0
102
RTVSPost2010Prop42
 90
       50
102
RTVSPost2010PropOp42
 70
     0
102
RTVSPost2010Prop43
 90
        3
102
RTVSPost2010PropOp43
 70
     0
102
RTVSPost2010Prop44ColorIndex
 90
        5
102
RTVSPost2010Prop44ColorRGB
 90
      255
102
RTVSPost2010PropOp44
 70
     0
102
RTVSPost2010Prop45
280
     0
102
RTVSPost2010PropOp45
 70
     0
102
RTVSPost2010Prop46
 90
       50
102
RTVSPost2010PropOp46
 70
     0
102
RTVSPost2010Prop47
 90
       50
102
RTVSPost2010PropOp47
 70
     0
102
RTVSPost2010Prop48
 90
       50
102
RTVSPost2010PropOp48
 70
     0
102
RTVSPost2010Prop49
280
     0
102
RTVSPost2010PropOp49
 70
     0
102
RTVSPost2010Prop50
 90
       50
102
RTVSPost2010PropOp50
 70
     0
102
RTVSPost2010Prop51ColorIndex
 90
      256
102
RTVSPost2010Prop51ColorRGB
 90
-16777216
102
RTVSPost2010PropOp51
 70
     0
102
RTVSPost2010Prop52
140
1.0
102
RTVSPost2010PropOp52
 70
     0
102
RTVSPost2010Prop53
 90
        2
102
RTVSPost2010PropOp53
 70
     0
102
RTVSPost2010Prop54
  1
strokes_ogs.tif
102
RTVSPost2010PropOp54
 70
     0
102
RTVSPost2010Prop55
280
     0
102
RTVSPost2010PropOp55
 70
     0
102
RTVSPost2010Prop56
140
1.0
102
RTVSPost2010PropOp56
 70
     0
102
RTVSPost2010Prop57
140
1.0
102
RTVSPost2010PropOp57
 70
     0
  0
XRECORD
  5
360
102
{ACAD_REACTORS
330
35F
102
}
330
35F
100
AcDbXrecord
280
     1
102
RTVSPropertyOp0
 70
     1
102
RTVSPropertyOp1
 70
     1
102
RTVSPropertyOp2
 70
     1
102
RTVSPropertyOp3
 70
     1
102
RTVSPropertyOp4
 70
     1
102
RTVSPropertyOp5
 70
     1
102
RTVSPropertyOp6
 70
     1
102
RTVSPropertyOp7
 70
     1
102
RTVSPropertyOp8
 70
     1
102
RTVSPropertyOp9
 70
     1
102
RTVSPropertyOp10
 70
     1
102
RTVSPropertyOp11
 70
     1
102
RTVSPropertyOp12
 70
     1
102
RTVSPropertyOp13
 70
     1
102
RTVSPropertyOp14
 70
     1
102
RTVSPropertyOp15
 70
     1
102
RTVSPropertyOp16
 70
     1
102
RTVSPropertyOp17
 70
     1
102
RTVSPropertyOp18
 70
     1
102
RTVSPropertyOp19
 70
     1
102
RTVSPropertyOp20
 70
     1
102
RTVSPropertyOp21
 70
     1
102
RTVSPropertyOp22
 70
     1
102
RTVSPropertyOp23
 70
     1
102
RTVSPropertyOp24
 70
     1
102
RTVSPropertyOp25
 70
     1
102
RTVSPropertyOp26
 70
     1
102
RTVSPropertyOp27
 70
     1
102
RTVSPropertyOp28
 70
     1
102
RTVSPropertyOp29
 70
     1
102
RTVSPropertyOp30
 70
     1
102
RTVSPropertyOp31
 70
     1
102
RTVSPropertyOp32
 70
     1
102
RTVSPropertyOp33
 70
     1
102
RTVSPropertyOp34
 70
     1
102
RTVSPropertyOp35
 70
     1
102
RTVSPropertyOp36
 70
     1
102
RTVSPropertyOp37
 70
     1
102
RTVSPropertyOp38
 70
     1
102
RTVSPropertyOp39
 70
     1
102
RTVSPropertyOp40
 70
     1
102
RTVSPropertyOp41
 70
     1
102
RTVSPropertyOp42
 70
     1
102
RTVSPropertyOp43
 70
     1
102
RTVSPropertyOp44
 70
     1
102
RTVSPropertyOp45
 70
     1
102
RTVSPropertyOp46
 70
     1
102
RTVSPropertyOp47
 70
     1
102
RTVSPropertyOp48
 70
     1
102
RTVSPropertyOp49
 70
     1
102
RTVSPropertyOp50
 70
     1
102
RTVSPropertyOp51
 70
     0
102
RTVSPropertyOp52
 70
     0
102
RTVSPropertyOp53
 70
     1
102
RTVSPropertyOp54
 70
     1
102
RTVSPropertyOp55
 70
     1
102
RTVSPropertyOp56
 70
     1
102
RTVSPropertyOp57
 70
     1
102
RTVSPost2010Prop28
280
     0
102
RTVSPost2010PropOp28
 70
     1
102
RTVSPost2010Prop29
280
     1
102
RTVSPost2010PropOp29
 70
     1
102
RTVSPost2010Prop30
280
     1
102
RTVSPost2010PropOp30
 70
     1
102
RTVSPost2010Prop31
280
     0
102
RTVSPost2010PropOp31
 70
     1
102
RTVSPost2010Prop32
280
     0
102
RTVSPost2010PropOp32
 70
     1
102
RTVSPost2010Prop33
280
     0
102
RTVSPost2010PropOp33
 70
     1
102
RTVSPost2010Prop34
280
     0
102
RTVSPost2010PropOp34
 70
     1
102
RTVSPost2010Prop35
280
     0
102
RTVSPost2010PropOp35
 70
     1
102
RTVSPost2010Prop36
280
     0
102
RTVSPost2010PropOp36
 70
     1
102
RTVSPost2010Prop37
 90
       50
102
RTVSPost2010PropOp37
 70
     1
102
RTVSPost2010Prop38
140
0.0
102
RTVSPost2010PropOp38
 70
     1
102
RTVSPost2010Prop39
140
1.0
102
RTVSPost2010PropOp39
 70
     1
102
RTVSPost2010Prop40
 90
        0
102
RTVSPost2010PropOp40
 70
     1
102
RTVSPost2010Prop41ColorIndex
 90
       18
102
RTVSPost2010Prop41ColorRGB
 90
        0
102
RTVSPost2010PropOp41
 70
     1
102
RTVSPost2010Prop42
 90
       50
102
RTVSPost2010PropOp42
 70
     1
102
RTVSPost2010Prop43
 90
        3
102
RTVSPost2010PropOp43
 70
     1
102
RTVSPost2010Prop44ColorIndex
 90
        5
102
RTVSPost2010Prop44ColorRGB
 90
      255
102
RTVSPost2010PropOp44
 70
     1
102
RTVSPost2010Prop45
280
     0
102
RTVSPost2010PropOp45
 70
     1
102
RTVSPost2010Prop46
 90
       50
102
RTVSPost2010PropOp46
 70
     1
102
RTVSPost2010Prop47
 90
       50
102
RTVSPost2010PropOp47
 70
     1
102
RTVSPost2010Prop48
 90
       50
102
RTVSPost2010PropOp48
 70
     1
102
RTVSPost2010Prop49
280
     0
102
RTVSPost2010PropOp49
 70
     1
102
RTVSPost2010Prop50
 90
       50
102
RTVSPost2010PropOp50
 70
     1
102
RTVSPost2010Prop51ColorIndex
 90
      256
102
RTVSPost2010Prop51ColorRGB
 90
-16777216
102
RTVSPost2010PropOp51
 70
     0
102
RTVSPost2010Prop52
140
1.0
102
RTVSPost2010PropOp52
 70
     0
102
RTVSPost2010Prop53
 90
        2
102
RTVSPost2010PropOp53
 70
     1
102
RTVSPost2010Prop54
  1
strokes_ogs.tif
102
RTVSPost2010PropOp54
 70
     1
102
RTVSPost2010Prop55
280
     0
102
RTVSPost2010PropOp55
 70
     1
102
RTVSPost2010Prop56
140
1.0
102
RTVSPost2010PropOp56
 70
     1
102
RTVSPost2010Prop57
140
1.0
102
RTVSPost2010PropOp57
 70
     1
  0
XRECORD
  5
368
102
{ACAD_REACTORS
330
367
102
}
330
367
100
AcDbXrecord
280
     1
102
RTVSPropertyOp0
 70
     0
102
RTVSPropertyOp1
 70
     0
102
RTVSPropertyOp2
 70
     0
102
RTVSPropertyOp3
 70
     0
102
RTVSPropertyOp4
 70
     0
102
RTVSPropertyOp5
 70
     0
102
RTVSPropertyOp6
 70
     0
102
RTVSPropertyOp7
 70
     0
102
RTVSPropertyOp8
 70
     0
102
RTVSPropertyOp9
 70
     0
102
RTVSPropertyOp10
 70
     0
102
RTVSPropertyOp11
 70
     0
102
RTVSPropertyOp12
 70
     0
102
RTVSPropertyOp13
 70
     0
102
RTVSPropertyOp14
 70
     2
102
RTVSPropertyOp15
 70
     0
102
RTVSPropertyOp16
 70
     0
102
RTVSPropertyOp17
 70
     0
102
RTVSPropertyOp18
 70
     0
102
RTVSPropertyOp19
 70
     0
102
RTVSPropertyOp20
 70
     0
102
RTVSPropertyOp21
 70
     0
102
RTVSPropertyOp22
 70
     0
102
RTVSPropertyOp23
 70
     0
102
RTVSPropertyOp24
 70
     0
102
RTVSPropertyOp25
 70
     0
102
RTVSPropertyOp26
 70
     0
102
RTVSPropertyOp27
 70
     0
102
RTVSPropertyOp28
 70
     0
102
RTVSPropertyOp29
 70
     0
102
RTVSPropertyOp30
 70
     0
102
RTVSPropertyOp31
 70
     0
102
RTVSPropertyOp32
 70
     0
102
RTVSPropertyOp33
 70
     0
102
RTVSPropertyOp34
 70
     0
102
RTVSPropertyOp35
 70
     0
102
RTVSPropertyOp36
 70
     0
102
RTVSPropertyOp37
 70
     0
102
RTVSPropertyOp38
 70
     0
102
RTVSPropertyOp39
 70
     0
102
RTVSPropertyOp40
 70
     0
102
RTVSPropertyOp41
 70
     0
102
RTVSPropertyOp42
 70
     0
102
RTVSPropertyOp43
 70
     0
102
RTVSPropertyOp44
 70
     0
102
RTVSPropertyOp45
 70
     0
102
RTVSPropertyOp46
 70
     0
102
RTVSPropertyOp47
 70
     0
102
RTVSPropertyOp48
 70
     0
102
RTVSPropertyOp49
 70
     0
102
RTVSPropertyOp50
 70
     0
102
RTVSPropertyOp51
 70
     0
102
RTVSPropertyOp52
 70
     0
102
RTVSPropertyOp53
 70
     0
102
RTVSPropertyOp54
 70
     0
102
RTVSPropertyOp55
 70
     0
102
RTVSPropertyOp56
 70
     0
102
RTVSPropertyOp57
 70
     0
102
RTVSPost2010Prop28
280
     0
102
RTVSPost2010PropOp28
 70
     0
102
RTVSPost2010Prop29
280
     1
102
RTVSPost2010PropOp29
 70
     0
102
RTVSPost2010Prop30
280
     1
102
RTVSPost2010PropOp30
 70
     0
102
RTVSPost2010Prop31
280
     0
102
RTVSPost2010PropOp31
 70
     0
102
RTVSPost2010Prop32
280
     0
102
RTVSPost2010PropOp32
 70
     0
102
RTVSPost2010Prop33
280
     0
102
RTVSPost2010PropOp33
 70
     0
102
RTVSPost2010Prop34
280
     0
102
RTVSPost2010PropOp34
 70
     0
102
RTVSPost2010Prop35
280
     0
102
RTVSPost2010PropOp35
 70
     0
102
RTVSPost2010Prop36
280
     0
102
RTVSPost2010PropOp36
 70
     0
102
RTVSPost2010Prop37
 90
       50
102
RTVSPost2010PropOp37
 70
     0
102
RTVSPost2010Prop38
140
0.0
102
RTVSPost2010PropOp38
 70
     0
102
RTVSPost2010Prop39
140
1.0
102
RTVSPost2010PropOp39
 70
     0
102
RTVSPost2010Prop40
 90
        0
102
RTVSPost2010PropOp40
 70
     0
102
RTVSPost2010Prop41ColorIndex
 90
       18
102
RTVSPost2010Prop41ColorRGB
 90
        0
102
RTVSPost2010PropOp41
 70
     0
102
RTVSPost2010Prop42
 90
       50
102
RTVSPost2010PropOp42
 70
     0
102
RTVSPost2010Prop43
 90
        3
102
RTVSPost2010PropOp43
 70
     0
102
RTVSPost2010Prop44ColorIndex
 90
        5
102
RTVSPost2010Prop44ColorRGB
 90
      255
102
RTVSPost2010PropOp44
 70
     0
102
RTVSPost2010Prop45
280
     0
102
RTVSPost2010PropOp45
 70
     0
102
RTVSPost2010Prop46
 90
       50
102
RTVSPost2010PropOp46
 70
     0
102
RTVSPost2010Prop47
 90
       50
102
RTVSPost2010PropOp47
 70
     0
102
RTVSPost2010Prop48
 90
       50
102
RTVSPost2010PropOp48
 70
     0
102
RTVSPost2010Prop49
280
     0
102
RTVSPost2010PropOp49
 70
     0
102
RTVSPost2010Prop50
 90
       50
102
RTVSPost2010PropOp50
 70
     0
102
RTVSPost2010Prop51ColorIndex
 90
      256
102
RTVSPost2010Prop51ColorRGB
 90
-16777216
102
RTVSPost2010PropOp51
 70
     0
102
RTVSPost2010Prop52
140
1.0
102
RTVSPost2010PropOp52
 70
     0
102
RTVSPost2010Prop53
 90
        2
102
RTVSPost2010PropOp53
 70
     0
102
RTVSPost2010Prop54
  1
strokes_ogs.tif
102
RTVSPost2010PropOp54
 70
     0
102
RTVSPost2010Prop55
280
     0
102
RTVSPost2010PropOp55
 70
     0
102
RTVSPost2010Prop56
140
1.0
102
RTVSPost2010PropOp56
 70
     0
102
RTVSPost2010Prop57
140
1.0
102
RTVSPost2010PropOp57
 70
     0
  0
XRECORD
  5
356
102
{ACAD_REACTORS
330
355
102
}
330
355
100
AcDbXrecord
280
     1
102
RTVSPropertyOp0
 70
     1
102
RTVSPropertyOp1
 70
     1
102
RTVSPropertyOp2
 70
     1
102
RTVSPropertyOp3
 70
     1
102
RTVSPropertyOp4
 70
     1
102
RTVSPropertyOp5
 70
     1
102
RTVSPropertyOp6
 70
     1
102
RTVSPropertyOp7
 70
     1
102
RTVSPropertyOp8
 70
     1
102
RTVSPropertyOp9
 70
     1
102
RTVSPropertyOp10
 70
     1
102
RTVSPropertyOp11
 70
     1
102
RTVSPropertyOp12
 70
     1
102
RTVSPropertyOp13
 70
     1
102
RTVSPropertyOp14
 70
     1
102
RTVSPropertyOp15
 70
     1
102
RTVSPropertyOp16
 70
     1
102
RTVSPropertyOp17
 70
     1
102
RTVSPropertyOp18
 70
     1
102
RTVSPropertyOp19
 70
     1
102
RTVSPropertyOp20
 70
     1
102
RTVSPropertyOp21
 70
     1
102
RTVSPropertyOp22
 70
     1
102
RTVSPropertyOp23
 70
     1
102
RTVSPropertyOp24
 70
     1
102
RTVSPropertyOp25
 70
     1
102
RTVSPropertyOp26
 70
     1
102
RTVSPropertyOp27
 70
     1
102
RTVSPropertyOp28
 70
     1
102
RTVSPropertyOp29
 70
     1
102
RTVSPropertyOp30
 70
     1
102
RTVSPropertyOp31
 70
     1
102
RTVSPropertyOp32
 70
     1
102
RTVSPropertyOp33
 70
     1
102
RTVSPropertyOp34
 70
     1
102
RTVSPropertyOp35
 70
     1
102
RTVSPropertyOp36
 70
     1
102
RTVSPropertyOp37
 70
     1
102
RTVSPropertyOp38
 70
     1
102
RTVSPropertyOp39
 70
     1
102
RTVSPropertyOp40
 70
     1
102
RTVSPropertyOp41
 70
     1
102
RTVSPropertyOp42
 70
     1
102
RTVSPropertyOp43
 70
     1
102
RTVSPropertyOp44
 70
     1
102
RTVSPropertyOp45
 70
     1
102
RTVSPropertyOp46
 70
     1
102
RTVSPropertyOp47
 70
     1
102
RTVSPropertyOp48
 70
     1
102
RTVSPropertyOp49
 70
     1
102
RTVSPropertyOp50
 70
     1
102
RTVSPropertyOp51
 70
     0
102
RTVSPropertyOp52
 70
     0
102
RTVSPropertyOp53
 70
     1
102
RTVSPropertyOp54
 70
     1
102
RTVSPropertyOp55
 70
     1
102
RTVSPropertyOp56
 70
     1
102
RTVSPropertyOp57
 70
     1
102
RTVSPost2010Prop28
280
     0
102
RTVSPost2010PropOp28
 70
     1
102
RTVSPost2010Prop29
280
     1
102
RTVSPost2010PropOp29
 70
     1
102
RTVSPost2010Prop30
280
     1
102
RTVSPost2010PropOp30
 70
     1
102
RTVSPost2010Prop31
280
     0
102
RTVSPost2010PropOp31
 70
     1
102
RTVSPost2010Prop32
280
     0
102
RTVSPost2010PropOp32
 70
     1
102
RTVSPost2010Prop33
280
     0
102
RTVSPost2010PropOp33
 70
     1
102
RTVSPost2010Prop34
280
     0
102
RTVSPost2010PropOp34
 70
     1
102
RTVSPost2010Prop35
280
     0
102
RTVSPost2010PropOp35
 70
     1
102
RTVSPost2010Prop36
280
     0
102
RTVSPost2010PropOp36
 70
     1
102
RTVSPost2010Prop37
 90
       50
102
RTVSPost2010PropOp37
 70
     1
102
RTVSPost2010Prop38
140
0.0
102
RTVSPost2010PropOp38
 70
     1
102
RTVSPost2010Prop39
140
1.0
102
RTVSPost2010PropOp39
 70
     1
102
RTVSPost2010Prop40
 90
        0
102
RTVSPost2010PropOp40
 70
     1
102
RTVSPost2010Prop41ColorIndex
 90
       18
102
RTVSPost2010Prop41ColorRGB
 90
        0
102
RTVSPost2010PropOp41
 70
     1
102
RTVSPost2010Prop42
 90
       50
102
RTVSPost2010PropOp42
 70
     1
102
RTVSPost2010Prop43
 90
        3
102
RTVSPost2010PropOp43
 70
     1
102
RTVSPost2010Prop44ColorIndex
 90
        5
102
RTVSPost2010Prop44ColorRGB
 90
      255
102
RTVSPost2010PropOp44
 70
     1
102
RTVSPost2010Prop45
280
     0
102
RTVSPost2010PropOp45
 70
     1
102
RTVSPost2010Prop46
 90
       50
102
RTVSPost2010PropOp46
 70
     1
102
RTVSPost2010Prop47
 90
       50
102
RTVSPost2010PropOp47
 70
     1
102
RTVSPost2010Prop48
 90
       50
102
RTVSPost2010PropOp48
 70
     1
102
RTVSPost2010Prop49
280
     0
102
RTVSPost2010PropOp49
 70
     1
102
RTVSPost2010Prop50
 90
       50
102
RTVSPost2010PropOp50
 70
     1
102
RTVSPost2010Prop51ColorIndex
 90
      256
102
RTVSPost2010Prop51ColorRGB
 90
-16777216
102
RTVSPost2010PropOp51
 70
     0
102
RTVSPost2010Prop52
140
1.0
102
RTVSPost2010PropOp52
 70
     0
102
RTVSPost2010Prop53
 90
        2
102
RTVSPost2010PropOp53
 70
     1
102
RTVSPost2010Prop54
  1
strokes_ogs.tif
102
RTVSPost2010PropOp54
 70
     1
102
RTVSPost2010Prop55
280
     0
102
RTVSPost2010PropOp55
 70
     1
102
RTVSPost2010Prop56
140
1.0
102
RTVSPost2010PropOp56
 70
     1
102
RTVSPost2010Prop57
140
1.0
102
RTVSPost2010PropOp57
 70
     1
  0
XRECORD
  5
374
102
{ACAD_REACTORS
330
373
102
}
330
373
100
AcDbXrecord
280
     1
102
RTVSPropertyOp0
 70
     1
102
RTVSPropertyOp1
 70
     1
102
RTVSPropertyOp2
 70
     1
102
RTVSPropertyOp3
 70
     1
102
RTVSPropertyOp4
 70
     1
102
RTVSPropertyOp5
 70
     1
102
RTVSPropertyOp6
 70
     1
102
RTVSPropertyOp7
 70
     1
102
RTVSPropertyOp8
 70
     1
102
RTVSPropertyOp9
 70
     1
102
RTVSPropertyOp10
 70
     1
102
RTVSPropertyOp11
 70
     1
102
RTVSPropertyOp12
 70
     1
102
RTVSPropertyOp13
 70
     1
102
RTVSPropertyOp14
 70
     1
102
RTVSPropertyOp15
 70
     1
102
RTVSPropertyOp16
 70
     1
102
RTVSPropertyOp17
 70
     1
102
RTVSPropertyOp18
 70
     1
102
RTVSPropertyOp19
 70
     1
102
RTVSPropertyOp20
 70
     1
102
RTVSPropertyOp21
 70
     1
102
RTVSPropertyOp22
 70
     1
102
RTVSPropertyOp23
 70
     1
102
RTVSPropertyOp24
 70
     1
102
RTVSPropertyOp25
 70
     1
102
RTVSPropertyOp26
 70
     1
102
RTVSPropertyOp27
 70
     1
102
RTVSPropertyOp28
 70
     1
102
RTVSPropertyOp29
 70
     1
102
RTVSPropertyOp30
 70
     1
102
RTVSPropertyOp31
 70
     1
102
RTVSPropertyOp32
 70
     1
102
RTVSPropertyOp33
 70
     1
102
RTVSPropertyOp34
 70
     1
102
RTVSPropertyOp35
 70
     1
102
RTVSPropertyOp36
 70
     1
102
RTVSPropertyOp37
 70
     1
102
RTVSPropertyOp38
 70
     1
102
RTVSPropertyOp39
 70
     1
102
RTVSPropertyOp40
 70
     1
102
RTVSPropertyOp41
 70
     1
102
RTVSPropertyOp42
 70
     1
102
RTVSPropertyOp43
 70
     1
102
RTVSPropertyOp44
 70
     1
102
RTVSPropertyOp45
 70
     1
102
RTVSPropertyOp46
 70
     1
102
RTVSPropertyOp47
 70
     1
102
RTVSPropertyOp48
 70
     1
102
RTVSPropertyOp49
 70
     1
102
RTVSPropertyOp50
 70
     1
102
RTVSPropertyOp51
 70
     0
102
RTVSPropertyOp52
 70
     0
102
RTVSPropertyOp53
 70
     1
102
RTVSPropertyOp54
 70
     1
102
RTVSPropertyOp55
 70
     1
102
RTVSPropertyOp56
 70
     1
102
RTVSPropertyOp57
 70
     1
102
RTVSPost2010Prop28
280
     0
102
RTVSPost2010PropOp28
 70
     1
102
RTVSPost2010Prop29
280
     1
102
RTVSPost2010PropOp29
 70
     1
102
RTVSPost2010Prop30
280
     1
102
RTVSPost2010PropOp30
 70
     1
102
RTVSPost2010Prop31
280
     0
102
RTVSPost2010PropOp31
 70
     1
102
RTVSPost2010Prop32
280
     0
102
RTVSPost2010PropOp32
 70
     1
102
RTVSPost2010Prop33
280
     0
102
RTVSPost2010PropOp33
 70
     1
102
RTVSPost2010Prop34
280
     0
102
RTVSPost2010PropOp34
 70
     1
102
RTVSPost2010Prop35
280
     0
102
RTVSPost2010PropOp35
 70
     1
102
RTVSPost2010Prop36
280
     0
102
RTVSPost2010PropOp36
 70
     1
102
RTVSPost2010Prop37
 90
       50
102
RTVSPost2010PropOp37
 70
     1
102
RTVSPost2010Prop38
140
0.0
102
RTVSPost2010PropOp38
 70
     1
102
RTVSPost2010Prop39
140
1.0
102
RTVSPost2010PropOp39
 70
     1
102
RTVSPost2010Prop40
 90
        0
102
RTVSPost2010PropOp40
 70
     1
102
RTVSPost2010Prop41ColorIndex
 90
       18
102
RTVSPost2010Prop41ColorRGB
 90
        0
102
RTVSPost2010PropOp41
 70
     1
102
RTVSPost2010Prop42
 90
       50
102
RTVSPost2010PropOp42
 70
     1
102
RTVSPost2010Prop43
 90
        3
102
RTVSPost2010PropOp43
 70
     1
102
RTVSPost2010Prop44ColorIndex
 90
        5
102
RTVSPost2010Prop44ColorRGB
 90
      255
102
RTVSPost2010PropOp44
 70
     1
102
RTVSPost2010Prop45
280
     0
102
RTVSPost2010PropOp45
 70
     1
102
RTVSPost2010Prop46
 90
       50
102
RTVSPost2010PropOp46
 70
     1
102
RTVSPost2010Prop47
 90
       50
102
RTVSPost2010PropOp47
 70
     1
102
RTVSPost2010Prop48
 90
       50
102
RTVSPost2010PropOp48
 70
     1
102
RTVSPost2010Prop49
280
     0
102
RTVSPost2010PropOp49
 70
     1
102
RTVSPost2010Prop50
 90
       50
102
RTVSPost2010PropOp50
 70
     1
102
RTVSPost2010Prop51ColorIndex
 90
      256
102
RTVSPost2010Prop51ColorRGB
 90
-16777216
102
RTVSPost2010PropOp51
 70
     0
102
RTVSPost2010Prop52
140
1.0
102
RTVSPost2010PropOp52
 70
     0
102
RTVSPost2010Prop53
 90
        2
102
RTVSPost2010PropOp53
 70
     1
102
RTVSPost2010Prop54
  1
strokes_ogs.tif
102
RTVSPost2010PropOp54
 70
     1
102
RTVSPost2010Prop55
280
     0
102
RTVSPost2010PropOp55
 70
     1
102
RTVSPost2010Prop56
140
1.0
102
RTVSPost2010PropOp56
 70
     1
102
RTVSPost2010Prop57
140
1.0
102
RTVSPost2010PropOp57
 70
     1
  0
XRECORD
  5
372
102
{ACAD_REACTORS
330
371
102
}
330
371
100
AcDbXrecord
280
     1
102
RTVSPropertyOp0
 70
     1
102
RTVSPropertyOp1
 70
     1
102
RTVSPropertyOp2
 70
     1
102
RTVSPropertyOp3
 70
     1
102
RTVSPropertyOp4
 70
     1
102
RTVSPropertyOp5
 70
     1
102
RTVSPropertyOp6
 70
     1
102
RTVSPropertyOp7
 70
     1
102
RTVSPropertyOp8
 70
     1
102
RTVSPropertyOp9
 70
     1
102
RTVSPropertyOp10
 70
     1
102
RTVSPropertyOp11
 70
     1
102
RTVSPropertyOp12
 70
     1
102
RTVSPropertyOp13
 70
     1
102
RTVSPropertyOp14
 70
     1
102
RTVSPropertyOp15
 70
     1
102
RTVSPropertyOp16
 70
     1
102
RTVSPropertyOp17
 70
     1
102
RTVSPropertyOp18
 70
     1
102
RTVSPropertyOp19
 70
     1
102
RTVSPropertyOp20
 70
     1
102
RTVSPropertyOp21
 70
     1
102
RTVSPropertyOp22
 70
     1
102
RTVSPropertyOp23
 70
     1
102
RTVSPropertyOp24
 70
     1
102
RTVSPropertyOp25
 70
     1
102
RTVSPropertyOp26
 70
     1
102
RTVSPropertyOp27
 70
     1
102
RTVSPropertyOp28
 70
     1
102
RTVSPropertyOp29
 70
     1
102
RTVSPropertyOp30
 70
     1
102
RTVSPropertyOp31
 70
     1
102
RTVSPropertyOp32
 70
     1
102
RTVSPropertyOp33
 70
     1
102
RTVSPropertyOp34
 70
     1
102
RTVSPropertyOp35
 70
     1
102
RTVSPropertyOp36
 70
     1
102
RTVSPropertyOp37
 70
     1
102
RTVSPropertyOp38
 70
     1
102
RTVSPropertyOp39
 70
     1
102
RTVSPropertyOp40
 70
     1
102
RTVSPropertyOp41
 70
     1
102
RTVSPropertyOp42
 70
     1
102
RTVSPropertyOp43
 70
     1
102
RTVSPropertyOp44
 70
     1
102
RTVSPropertyOp45
 70
     1
102
RTVSPropertyOp46
 70
     1
102
RTVSPropertyOp47
 70
     1
102
RTVSPropertyOp48
 70
     1
102
RTVSPropertyOp49
 70
     1
102
RTVSPropertyOp50
 70
     1
102
RTVSPropertyOp51
 70
     0
102
RTVSPropertyOp52
 70
     0
102
RTVSPropertyOp53
 70
     1
102
RTVSPropertyOp54
 70
     1
102
RTVSPropertyOp55
 70
     1
102
RTVSPropertyOp56
 70
     1
102
RTVSPropertyOp57
 70
     1
102
RTVSPost2010Prop28
280
     0
102
RTVSPost2010PropOp28
 70
     1
102
RTVSPost2010Prop29
280
     1
102
RTVSPost2010PropOp29
 70
     1
102
RTVSPost2010Prop30
280
     1
102
RTVSPost2010PropOp30
 70
     1
102
RTVSPost2010Prop31
280
     0
102
RTVSPost2010PropOp31
 70
     1
102
RTVSPost2010Prop32
280
     0
102
RTVSPost2010PropOp32
 70
     1
102
RTVSPost2010Prop33
280
     0
102
RTVSPost2010PropOp33
 70
     1
102
RTVSPost2010Prop34
280
     0
102
RTVSPost2010PropOp34
 70
     1
102
RTVSPost2010Prop35
280
     0
102
RTVSPost2010PropOp35
 70
     1
102
RTVSPost2010Prop36
280
     0
102
RTVSPost2010PropOp36
 70
     1
102
RTVSPost2010Prop37
 90
       50
102
RTVSPost2010PropOp37
 70
     1
102
RTVSPost2010Prop38
140
0.0
102
RTVSPost2010PropOp38
 70
     1
102
RTVSPost2010Prop39
140
1.0
102
RTVSPost2010PropOp39
 70
     1
102
RTVSPost2010Prop40
 90
        0
102
RTVSPost2010PropOp40
 70
     1
102
RTVSPost2010Prop41ColorIndex
 90
       18
102
RTVSPost2010Prop41ColorRGB
 90
        0
102
RTVSPost2010PropOp41
 70
     1
102
RTVSPost2010Prop42
 90
       50
102
RTVSPost2010PropOp42
 70
     1
102
RTVSPost2010Prop43
 90
        3
102
RTVSPost2010PropOp43
 70
     1
102
RTVSPost2010Prop44ColorIndex
 90
        5
102
RTVSPost2010Prop44ColorRGB
 90
      255
102
RTVSPost2010PropOp44
 70
     1
102
RTVSPost2010Prop45
280
     0
102
RTVSPost2010PropOp45
 70
     1
102
RTVSPost2010Prop46
 90
       50
102
RTVSPost2010PropOp46
 70
     1
102
RTVSPost2010Prop47
 90
       50
102
RTVSPost2010PropOp47
 70
     1
102
RTVSPost2010Prop48
 90
       50
102
RTVSPost2010PropOp48
 70
     1
102
RTVSPost2010Prop49
280
     0
102
RTVSPost2010PropOp49
 70
     1
102
RTVSPost2010Prop50
 90
       50
102
RTVSPost2010PropOp50
 70
     1
102
RTVSPost2010Prop51ColorIndex
 90
      256
102
RTVSPost2010Prop51ColorRGB
 90
-16777216
102
RTVSPost2010PropOp51
 70
     0
102
RTVSPost2010Prop52
140
1.0
102
RTVSPost2010PropOp52
 70
     0
102
RTVSPost2010Prop53
 90
        2
102
RTVSPost2010PropOp53
 70
     1
102
RTVSPost2010Prop54
  1
strokes_ogs.tif
102
RTVSPost2010PropOp54
 70
     1
102
RTVSPost2010Prop55
280
     0
102
RTVSPost2010PropOp55
 70
     1
102
RTVSPost2010Prop56
140
1.0
102
RTVSPost2010PropOp56
 70
     1
102
RTVSPost2010Prop57
140
1.0
102
RTVSPost2010PropOp57
 70
     1
  0
XRECORD
  5
36C
102
{ACAD_REACTORS
330
36B
102
}
330
36B
100
AcDbXrecord
280
     1
102
RTVSPropertyOp0
 70
     1
102
RTVSPropertyOp1
 70
     1
102
RTVSPropertyOp2
 70
     1
102
RTVSPropertyOp3
 70
     1
102
RTVSPropertyOp4
 70
     1
102
RTVSPropertyOp5
 70
     1
102
RTVSPropertyOp6
 70
     1
102
RTVSPropertyOp7
 70
     1
102
RTVSPropertyOp8
 70
     1
102
RTVSPropertyOp9
 70
     1
102
RTVSPropertyOp10
 70
     1
102
RTVSPropertyOp11
 70
     1
102
RTVSPropertyOp12
 70
     1
102
RTVSPropertyOp13
 70
     1
102
RTVSPropertyOp14
 70
     1
102
RTVSPropertyOp15
 70
     1
102
RTVSPropertyOp16
 70
     1
102
RTVSPropertyOp17
 70
     1
102
RTVSPropertyOp18
 70
     1
102
RTVSPropertyOp19
 70
     1
102
RTVSPropertyOp20
 70
     1
102
RTVSPropertyOp21
 70
     1
102
RTVSPropertyOp22
 70
     1
102
RTVSPropertyOp23
 70
     1
102
RTVSPropertyOp24
 70
     1
102
RTVSPropertyOp25
 70
     1
102
RTVSPropertyOp26
 70
     1
102
RTVSPropertyOp27
 70
     1
102
RTVSPropertyOp28
 70
     1
102
RTVSPropertyOp29
 70
     1
102
RTVSPropertyOp30
 70
     1
102
RTVSPropertyOp31
 70
     1
102
RTVSPropertyOp32
 70
     1
102
RTVSPropertyOp33
 70
     1
102
RTVSPropertyOp34
 70
     1
102
RTVSPropertyOp35
 70
     1
102
RTVSPropertyOp36
 70
     1
102
RTVSPropertyOp37
 70
     1
102
RTVSPropertyOp38
 70
     1
102
RTVSPropertyOp39
 70
     1
102
RTVSPropertyOp40
 70
     1
102
RTVSPropertyOp41
 70
     1
102
RTVSPropertyOp42
 70
     1
102
RTVSPropertyOp43
 70
     1
102
RTVSPropertyOp44
 70
     1
102
RTVSPropertyOp45
 70
     1
102
RTVSPropertyOp46
 70
     1
102
RTVSPropertyOp47
 70
     1
102
RTVSPropertyOp48
 70
     1
102
RTVSPropertyOp49
 70
     1
102
RTVSPropertyOp50
 70
     1
102
RTVSPropertyOp51
 70
     0
102
RTVSPropertyOp52
 70
     0
102
RTVSPropertyOp53
 70
     1
102
RTVSPropertyOp54
 70
     1
102
RTVSPropertyOp55
 70
     1
102
RTVSPropertyOp56
 70
     1
102
RTVSPropertyOp57
 70
     1
102
RTVSPost2010Prop28
280
     0
102
RTVSPost2010PropOp28
 70
     1
102
RTVSPost2010Prop29
280
     1
102
RTVSPost2010PropOp29
 70
     1
102
RTVSPost2010Prop30
280
     1
102
RTVSPost2010PropOp30
 70
     1
102
RTVSPost2010Prop31
280
     0
102
RTVSPost2010PropOp31
 70
     1
102
RTVSPost2010Prop32
280
     0
102
RTVSPost2010PropOp32
 70
     1
102
RTVSPost2010Prop33
280
     0
102
RTVSPost2010PropOp33
 70
     1
102
RTVSPost2010Prop34
280
     0
102
RTVSPost2010PropOp34
 70
     1
102
RTVSPost2010Prop35
280
     0
102
RTVSPost2010PropOp35
 70
     1
102
RTVSPost2010Prop36
280
     0
102
RTVSPost2010PropOp36
 70
     1
102
RTVSPost2010Prop37
 90
       50
102
RTVSPost2010PropOp37
 70
     1
102
RTVSPost2010Prop38
140
0.0
102
RTVSPost2010PropOp38
 70
     1
102
RTVSPost2010Prop39
140
1.0
102
RTVSPost2010PropOp39
 70
     1
102
RTVSPost2010Prop40
 90
        0
102
RTVSPost2010PropOp40
 70
     1
102
RTVSPost2010Prop41ColorIndex
 90
       18
102
RTVSPost2010Prop41ColorRGB
 90
        0
102
RTVSPost2010PropOp41
 70
     1
102
RTVSPost2010Prop42
 90
       50
102
RTVSPost2010PropOp42
 70
     1
102
RTVSPost2010Prop43
 90
        3
102
RTVSPost2010PropOp43
 70
     1
102
RTVSPost2010Prop44ColorIndex
 90
        5
102
RTVSPost2010Prop44ColorRGB
 90
      255
102
RTVSPost2010PropOp44
 70
     1
102
RTVSPost2010Prop45
280
     0
102
RTVSPost2010PropOp45
 70
     1
102
RTVSPost2010Prop46
 90
       50
102
RTVSPost2010PropOp46
 70
     1
102
RTVSPost2010Prop47
 90
       50
102
RTVSPost2010PropOp47
 70
     1
102
RTVSPost2010Prop48
 90
       50
102
RTVSPost2010PropOp48
 70
     1
102
RTVSPost2010Prop49
280
     0
102
RTVSPost2010PropOp49
 70
     1
102
RTVSPost2010Prop50
 90
       50
102
RTVSPost2010PropOp50
 70
     1
102
RTVSPost2010Prop51ColorIndex
 90
      256
102
RTVSPost2010Prop51ColorRGB
 90
-16777216
102
RTVSPost2010PropOp51
 70
     0
102
RTVSPost2010Prop52
140
1.0
102
RTVSPost2010PropOp52
 70
     0
102
RTVSPost2010Prop53
 90
        2
102
RTVSPost2010PropOp53
 70
     1
102
RTVSPost2010Prop54
  1
strokes_ogs.tif
102
RTVSPost2010PropOp54
 70
     1
102
RTVSPost2010Prop55
280
     0
102
RTVSPost2010PropOp55
 70
     1
102
RTVSPost2010Prop56
140
1.0
102
RTVSPost2010PropOp56
 70
     1
102
RTVSPost2010Prop57
140
1.0
102
RTVSPost2010PropOp57
 70
     1
  0
XRECORD
  5
36E
102
{ACAD_REACTORS
330
36D
102
}
330
36D
100
AcDbXrecord
280
     1
102
RTVSPropertyOp0
 70
     1
102
RTVSPropertyOp1
 70
     1
102
RTVSPropertyOp2
 70
     1
102
RTVSPropertyOp3
 70
     1
102
RTVSPropertyOp4
 70
     1
102
RTVSPropertyOp5
 70
     1
102
RTVSPropertyOp6
 70
     1
102
RTVSPropertyOp7
 70
     1
102
RTVSPropertyOp8
 70
     1
102
RTVSPropertyOp9
 70
     1
102
RTVSPropertyOp10
 70
     1
102
RTVSPropertyOp11
 70
     1
102
RTVSPropertyOp12
 70
     1
102
RTVSPropertyOp13
 70
     1
102
RTVSPropertyOp14
 70
     1
102
RTVSPropertyOp15
 70
     1
102
RTVSPropertyOp16
 70
     1
102
RTVSPropertyOp17
 70
     1
102
RTVSPropertyOp18
 70
     1
102
RTVSPropertyOp19
 70
     1
102
RTVSPropertyOp20
 70
     1
102
RTVSPropertyOp21
 70
     1
102
RTVSPropertyOp22
 70
     1
102
RTVSPropertyOp23
 70
     1
102
RTVSPropertyOp24
 70
     1
102
RTVSPropertyOp25
 70
     1
102
RTVSPropertyOp26
 70
     1
102
RTVSPropertyOp27
 70
     1
102
RTVSPropertyOp28
 70
     1
102
RTVSPropertyOp29
 70
     1
102
RTVSPropertyOp30
 70
     1
102
RTVSPropertyOp31
 70
     1
102
RTVSPropertyOp32
 70
     1
102
RTVSPropertyOp33
 70
     1
102
RTVSPropertyOp34
 70
     1
102
RTVSPropertyOp35
 70
     1
102
RTVSPropertyOp36
 70
     1
102
RTVSPropertyOp37
 70
     1
102
RTVSPropertyOp38
 70
     1
102
RTVSPropertyOp39
 70
     1
102
RTVSPropertyOp40
 70
     1
102
RTVSPropertyOp41
 70
     1
102
RTVSPropertyOp42
 70
     1
102
RTVSPropertyOp43
 70
     1
102
RTVSPropertyOp44
 70
     1
102
RTVSPropertyOp45
 70
     1
102
RTVSPropertyOp46
 70
     1
102
RTVSPropertyOp47
 70
     1
102
RTVSPropertyOp48
 70
     1
102
RTVSPropertyOp49
 70
     1
102
RTVSPropertyOp50
 70
     1
102
RTVSPropertyOp51
 70
     0
102
RTVSPropertyOp52
 70
     0
102
RTVSPropertyOp53
 70
     1
102
RTVSPropertyOp54
 70
     1
102
RTVSPropertyOp55
 70
     1
102
RTVSPropertyOp56
 70
     1
102
RTVSPropertyOp57
 70
     1
102
RTVSPost2010Prop28
280
     0
102
RTVSPost2010PropOp28
 70
     1
102
RTVSPost2010Prop29
280
     1
102
RTVSPost2010PropOp29
 70
     1
102
RTVSPost2010Prop30
280
     1
102
RTVSPost2010PropOp30
 70
     1
102
RTVSPost2010Prop31
280
     0
102
RTVSPost2010PropOp31
 70
     1
102
RTVSPost2010Prop32
280
     0
102
RTVSPost2010PropOp32
 70
     1
102
RTVSPost2010Prop33
280
     0
102
RTVSPost2010PropOp33
 70
     1
102
RTVSPost2010Prop34
280
     0
102
RTVSPost2010PropOp34
 70
     1
102
RTVSPost2010Prop35
280
     0
102
RTVSPost2010PropOp35
 70
     1
102
RTVSPost2010Prop36
280
     0
102
RTVSPost2010PropOp36
 70
     1
102
RTVSPost2010Prop37
 90
       50
102
RTVSPost2010PropOp37
 70
     1
102
RTVSPost2010Prop38
140
0.0
102
RTVSPost2010PropOp38
 70
     1
102
RTVSPost2010Prop39
140
1.0
102
RTVSPost2010PropOp39
 70
     1
102
RTVSPost2010Prop40
 90
        0
102
RTVSPost2010PropOp40
 70
     1
102
RTVSPost2010Prop41ColorIndex
 90
       18
102
RTVSPost2010Prop41ColorRGB
 90
        0
102
RTVSPost2010PropOp41
 70
     1
102
RTVSPost2010Prop42
 90
       50
102
RTVSPost2010PropOp42
 70
     1
102
RTVSPost2010Prop43
 90
        3
102
RTVSPost2010PropOp43
 70
     1
102
RTVSPost2010Prop44ColorIndex
 90
        5
102
RTVSPost2010Prop44ColorRGB
 90
      255
102
RTVSPost2010PropOp44
 70
     1
102
RTVSPost2010Prop45
280
     0
102
RTVSPost2010PropOp45
 70
     1
102
RTVSPost2010Prop46
 90
       50
102
RTVSPost2010PropOp46
 70
     1
102
RTVSPost2010Prop47
 90
       50
102
RTVSPost2010PropOp47
 70
     1
102
RTVSPost2010Prop48
 90
       50
102
RTVSPost2010PropOp48
 70
     1
102
RTVSPost2010Prop49
280
     0
102
RTVSPost2010PropOp49
 70
     1
102
RTVSPost2010Prop50
 90
       50
102
RTVSPost2010PropOp50
 70
     1
102
RTVSPost2010Prop51ColorIndex
 90
      256
102
RTVSPost2010Prop51ColorRGB
 90
-16777216
102
RTVSPost2010PropOp51
 70
     0
102
RTVSPost2010Prop52
140
1.0
102
RTVSPost2010PropOp52
 70
     0
102
RTVSPost2010Prop53
 90
        2
102
RTVSPost2010PropOp53
 70
     1
102
RTVSPost2010Prop54
  1
strokes_ogs.tif
102
RTVSPost2010PropOp54
 70
     1
102
RTVSPost2010Prop55
280
     0
102
RTVSPost2010PropOp55
 70
     1
102
RTVSPost2010Prop56
140
1.0
102
RTVSPost2010PropOp56
 70
     1
102
RTVSPost2010Prop57
140
1.0
102
RTVSPost2010PropOp57
 70
     1
  0
XRECORD
  5
35E
102
{ACAD_REACTORS
330
35D
102
}
330
35D
100
AcDbXrecord
280
     1
102
RTVSPropertyOp0
 70
     1
102
RTVSPropertyOp1
 70
     1
102
RTVSPropertyOp2
 70
     1
102
RTVSPropertyOp3
 70
     1
102
RTVSPropertyOp4
 70
     1
102
RTVSPropertyOp5
 70
     1
102
RTVSPropertyOp6
 70
     1
102
RTVSPropertyOp7
 70
     1
102
RTVSPropertyOp8
 70
     1
102
RTVSPropertyOp9
 70
     1
102
RTVSPropertyOp10
 70
     1
102
RTVSPropertyOp11
 70
     1
102
RTVSPropertyOp12
 70
     1
102
RTVSPropertyOp13
 70
     1
102
RTVSPropertyOp14
 70
     1
102
RTVSPropertyOp15
 70
     1
102
RTVSPropertyOp16
 70
     1
102
RTVSPropertyOp17
 70
     1
102
RTVSPropertyOp18
 70
     1
102
RTVSPropertyOp19
 70
     1
102
RTVSPropertyOp20
 70
     1
102
RTVSPropertyOp21
 70
     1
102
RTVSPropertyOp22
 70
     1
102
RTVSPropertyOp23
 70
     1
102
RTVSPropertyOp24
 70
     1
102
RTVSPropertyOp25
 70
     1
102
RTVSPropertyOp26
 70
     1
102
RTVSPropertyOp27
 70
     1
102
RTVSPropertyOp28
 70
     1
102
RTVSPropertyOp29
 70
     1
102
RTVSPropertyOp30
 70
     1
102
RTVSPropertyOp31
 70
     1
102
RTVSPropertyOp32
 70
     1
102
RTVSPropertyOp33
 70
     1
102
RTVSPropertyOp34
 70
     1
102
RTVSPropertyOp35
 70
     1
102
RTVSPropertyOp36
 70
     1
102
RTVSPropertyOp37
 70
     1
102
RTVSPropertyOp38
 70
     1
102
RTVSPropertyOp39
 70
     1
102
RTVSPropertyOp40
 70
     1
102
RTVSPropertyOp41
 70
     1
102
RTVSPropertyOp42
 70
     1
102
RTVSPropertyOp43
 70
     1
102
RTVSPropertyOp44
 70
     1
102
RTVSPropertyOp45
 70
     1
102
RTVSPropertyOp46
 70
     1
102
RTVSPropertyOp47
 70
     1
102
RTVSPropertyOp48
 70
     1
102
RTVSPropertyOp49
 70
     1
102
RTVSPropertyOp50
 70
     1
102
RTVSPropertyOp51
 70
     0
102
RTVSPropertyOp52
 70
     0
102
RTVSPropertyOp53
 70
     1
102
RTVSPropertyOp54
 70
     1
102
RTVSPropertyOp55
 70
     1
102
RTVSPropertyOp56
 70
     1
102
RTVSPropertyOp57
 70
     1
102
RTVSPost2010Prop28
280
     0
102
RTVSPost2010PropOp28
 70
     1
102
RTVSPost2010Prop29
280
     1
102
RTVSPost2010PropOp29
 70
     1
102
RTVSPost2010Prop30
280
     1
102
RTVSPost2010PropOp30
 70
     1
102
RTVSPost2010Prop31
280
     0
102
RTVSPost2010PropOp31
 70
     1
102
RTVSPost2010Prop32
280
     0
102
RTVSPost2010PropOp32
 70
     1
102
RTVSPost2010Prop33
280
     0
102
RTVSPost2010PropOp33
 70
     1
102
RTVSPost2010Prop34
280
     0
102
RTVSPost2010PropOp34
 70
     1
102
RTVSPost2010Prop35
280
     0
102
RTVSPost2010PropOp35
 70
     1
102
RTVSPost2010Prop36
280
     0
102
RTVSPost2010PropOp36
 70
     1
102
RTVSPost2010Prop37
 90
       50
102
RTVSPost2010PropOp37
 70
     1
102
RTVSPost2010Prop38
140
0.0
102
RTVSPost2010PropOp38
 70
     1
102
RTVSPost2010Prop39
140
1.0
102
RTVSPost2010PropOp39
 70
     1
102
RTVSPost2010Prop40
 90
        0
102
RTVSPost2010PropOp40
 70
     1
102
RTVSPost2010Prop41ColorIndex
 90
       18
102
RTVSPost2010Prop41ColorRGB
 90
        0
102
RTVSPost2010PropOp41
 70
     1
102
RTVSPost2010Prop42
 90
       50
102
RTVSPost2010PropOp42
 70
     1
102
RTVSPost2010Prop43
 90
        3
102
RTVSPost2010PropOp43
 70
     1
102
RTVSPost2010Prop44ColorIndex
 90
        5
102
RTVSPost2010Prop44ColorRGB
 90
      255
102
RTVSPost2010PropOp44
 70
     1
102
RTVSPost2010Prop45
280
     0
102
RTVSPost2010PropOp45
 70
     1
102
RTVSPost2010Prop46
 90
       50
102
RTVSPost2010PropOp46
 70
     1
102
RTVSPost2010Prop47
 90
       50
102
RTVSPost2010PropOp47
 70
     1
102
RTVSPost2010Prop48
 90
       50
102
RTVSPost2010PropOp48
 70
     1
102
RTVSPost2010Prop49
280
     0
102
RTVSPost2010PropOp49
 70
     1
102
RTVSPost2010Prop50
 90
       50
102
RTVSPost2010PropOp50
 70
     1
102
RTVSPost2010Prop51ColorIndex
 90
      256
102
RTVSPost2010Prop51ColorRGB
 90
-16777216
102
RTVSPost2010PropOp51
 70
     0
102
RTVSPost2010Prop52
140
1.0
102
RTVSPost2010PropOp52
 70
     0
102
RTVSPost2010Prop53
 90
        2
102
RTVSPost2010PropOp53
 70
     1
102
RTVSPost2010Prop54
  1
strokes_ogs.tif
102
RTVSPost2010PropOp54
 70
     1
102
RTVSPost2010Prop55
280
     0
102
RTVSPost2010PropOp55
 70
     1
102
RTVSPost2010Prop56
140
1.0
102
RTVSPost2010PropOp56
 70
     1
102
RTVSPost2010Prop57
140
1.0
102
RTVSPost2010PropOp57
 70
     1
  0
XRECORD
  5
350
102
{ACAD_REACTORS
330
34F
102
}
330
34F
100
AcDbXrecord
280
     1
102
RTVSPropertyOp0
 70
     1
102
RTVSPropertyOp1
 70
     1
102
RTVSPropertyOp2
 70
     1
102
RTVSPropertyOp3
 70
     1
102
RTVSPropertyOp4
 70
     1
102
RTVSPropertyOp5
 70
     1
102
RTVSPropertyOp6
 70
     1
102
RTVSPropertyOp7
 70
     1
102
RTVSPropertyOp8
 70
     1
102
RTVSPropertyOp9
 70
     1
102
RTVSPropertyOp10
 70
     1
102
RTVSPropertyOp11
 70
     1
102
RTVSPropertyOp12
 70
     1
102
RTVSPropertyOp13
 70
     1
102
RTVSPropertyOp14
 70
     1
102
RTVSPropertyOp15
 70
     1
102
RTVSPropertyOp16
 70
     1
102
RTVSPropertyOp17
 70
     1
102
RTVSPropertyOp18
 70
     1
102
RTVSPropertyOp19
 70
     1
102
RTVSPropertyOp20
 70
     1
102
RTVSPropertyOp21
 70
     1
102
RTVSPropertyOp22
 70
     1
102
RTVSPropertyOp23
 70
     1
102
RTVSPropertyOp24
 70
     1
102
RTVSPropertyOp25
 70
     1
102
RTVSPropertyOp26
 70
     1
102
RTVSPropertyOp27
 70
     1
102
RTVSPropertyOp28
 70
     1
102
RTVSPropertyOp29
 70
     1
102
RTVSPropertyOp30
 70
     1
102
RTVSPropertyOp31
 70
     1
102
RTVSPropertyOp32
 70
     1
102
RTVSPropertyOp33
 70
     1
102
RTVSPropertyOp34
 70
     1
102
RTVSPropertyOp35
 70
     1
102
RTVSPropertyOp36
 70
     1
102
RTVSPropertyOp37
 70
     1
102
RTVSPropertyOp38
 70
     1
102
RTVSPropertyOp39
 70
     1
102
RTVSPropertyOp40
 70
     1
102
RTVSPropertyOp41
 70
     1
102
RTVSPropertyOp42
 70
     1
102
RTVSPropertyOp43
 70
     1
102
RTVSPropertyOp44
 70
     1
102
RTVSPropertyOp45
 70
     1
102
RTVSPropertyOp46
 70
     1
102
RTVSPropertyOp47
 70
     1
102
RTVSPropertyOp48
 70
     1
102
RTVSPropertyOp49
 70
     1
102
RTVSPropertyOp50
 70
     1
102
RTVSPropertyOp51
 70
     0
102
RTVSPropertyOp52
 70
     0
102
RTVSPropertyOp53
 70
     1
102
RTVSPropertyOp54
 70
     1
102
RTVSPropertyOp55
 70
     1
102
RTVSPropertyOp56
 70
     1
102
RTVSPropertyOp57
 70
     1
102
RTVSPost2010Prop28
280
     0
102
RTVSPost2010PropOp28
 70
     1
102
RTVSPost2010Prop29
280
     1
102
RTVSPost2010PropOp29
 70
     1
102
RTVSPost2010Prop30
280
     1
102
RTVSPost2010PropOp30
 70
     1
102
RTVSPost2010Prop31
280
     0
102
RTVSPost2010PropOp31
 70
     1
102
RTVSPost2010Prop32
280
     0
102
RTVSPost2010PropOp32
 70
     1
102
RTVSPost2010Prop33
280
     0
102
RTVSPost2010PropOp33
 70
     1
102
RTVSPost2010Prop34
280
     0
102
RTVSPost2010PropOp34
 70
     1
102
RTVSPost2010Prop35
280
     0
102
RTVSPost2010PropOp35
 70
     1
102
RTVSPost2010Prop36
280
     0
102
RTVSPost2010PropOp36
 70
     1
102
RTVSPost2010Prop37
 90
       50
102
RTVSPost2010PropOp37
 70
     1
102
RTVSPost2010Prop38
140
0.0
102
RTVSPost2010PropOp38
 70
     1
102
RTVSPost2010Prop39
140
1.0
102
RTVSPost2010PropOp39
 70
     1
102
RTVSPost2010Prop40
 90
        0
102
RTVSPost2010PropOp40
 70
     1
102
RTVSPost2010Prop41ColorIndex
 90
       18
102
RTVSPost2010Prop41ColorRGB
 90
        0
102
RTVSPost2010PropOp41
 70
     1
102
RTVSPost2010Prop42
 90
       50
102
RTVSPost2010PropOp42
 70
     1
102
RTVSPost2010Prop43
 90
        3
102
RTVSPost2010PropOp43
 70
     1
102
RTVSPost2010Prop44ColorIndex
 90
        5
102
RTVSPost2010Prop44ColorRGB
 90
      255
102
RTVSPost2010PropOp44
 70
     1
102
RTVSPost2010Prop45
280
     0
102
RTVSPost2010PropOp45
 70
     1
102
RTVSPost2010Prop46
 90
       50
102
RTVSPost2010PropOp46
 70
     1
102
RTVSPost2010Prop47
 90
       50
102
RTVSPost2010PropOp47
 70
     1
102
RTVSPost2010Prop48
 90
       50
102
RTVSPost2010PropOp48
 70
     1
102
RTVSPost2010Prop49
280
     0
102
RTVSPost2010PropOp49
 70
     1
102
RTVSPost2010Prop50
 90
       50
102
RTVSPost2010PropOp50
 70
     1
102
RTVSPost2010Prop51ColorIndex
 90
      256
102
RTVSPost2010Prop51ColorRGB
 90
-16777216
102
RTVSPost2010PropOp51
 70
     0
102
RTVSPost2010Prop52
140
1.0
102
RTVSPost2010PropOp52
 70
     0
102
RTVSPost2010Prop53
 90
        2
102
RTVSPost2010PropOp53
 70
     1
102
RTVSPost2010Prop54
  1
strokes_ogs.tif
102
RTVSPost2010PropOp54
 70
     1
102
RTVSPost2010Prop55
280
     0
102
RTVSPost2010PropOp55
 70
     1
102
RTVSPost2010Prop56
140
1.0
102
RTVSPost2010PropOp56
 70
     1
102
RTVSPost2010Prop57
140
1.0
102
RTVSPost2010PropOp57
 70
     1
  0
XRECORD
  5
370
102
{ACAD_REACTORS
330
36F
102
}
330
36F
100
AcDbXrecord
280
     1
102
RTVSPropertyOp0
 70
     1
102
RTVSPropertyOp1
 70
     1
102
RTVSPropertyOp2
 70
     1
102
RTVSPropertyOp3
 70
     1
102
RTVSPropertyOp4
 70
     1
102
RTVSPropertyOp5
 70
     1
102
RTVSPropertyOp6
 70
     1
102
RTVSPropertyOp7
 70
     1
102
RTVSPropertyOp8
 70
     1
102
RTVSPropertyOp9
 70
     1
102
RTVSPropertyOp10
 70
     1
102
RTVSPropertyOp11
 70
     1
102
RTVSPropertyOp12
 70
     1
102
RTVSPropertyOp13
 70
     1
102
RTVSPropertyOp14
 70
     1
102
RTVSPropertyOp15
 70
     1
102
RTVSPropertyOp16
 70
     1
102
RTVSPropertyOp17
 70
     1
102
RTVSPropertyOp18
 70
     1
102
RTVSPropertyOp19
 70
     1
102
RTVSPropertyOp20
 70
     1
102
RTVSPropertyOp21
 70
     1
102
RTVSPropertyOp22
 70
     1
102
RTVSPropertyOp23
 70
     1
102
RTVSPropertyOp24
 70
     1
102
RTVSPropertyOp25
 70
     1
102
RTVSPropertyOp26
 70
     1
102
RTVSPropertyOp27
 70
     1
102
RTVSPropertyOp28
 70
     1
102
RTVSPropertyOp29
 70
     1
102
RTVSPropertyOp30
 70
     1
102
RTVSPropertyOp31
 70
     1
102
RTVSPropertyOp32
 70
     1
102
RTVSPropertyOp33
 70
     1
102
RTVSPropertyOp34
 70
     1
102
RTVSPropertyOp35
 70
     1
102
RTVSPropertyOp36
 70
     1
102
RTVSPropertyOp37
 70
     1
102
RTVSPropertyOp38
 70
     1
102
RTVSPropertyOp39
 70
     1
102
RTVSPropertyOp40
 70
     1
102
RTVSPropertyOp41
 70
     1
102
RTVSPropertyOp42
 70
     1
102
RTVSPropertyOp43
 70
     1
102
RTVSPropertyOp44
 70
     1
102
RTVSPropertyOp45
 70
     1
102
RTVSPropertyOp46
 70
     1
102
RTVSPropertyOp47
 70
     1
102
RTVSPropertyOp48
 70
     1
102
RTVSPropertyOp49
 70
     1
102
RTVSPropertyOp50
 70
     1
102
RTVSPropertyOp51
 70
     0
102
RTVSPropertyOp52
 70
     0
102
RTVSPropertyOp53
 70
     1
102
RTVSPropertyOp54
 70
     1
102
RTVSPropertyOp55
 70
     1
102
RTVSPropertyOp56
 70
     1
102
RTVSPropertyOp57
 70
     1
102
RTVSPost2010Prop28
280
     0
102
RTVSPost2010PropOp28
 70
     1
102
RTVSPost2010Prop29
280
     1
102
RTVSPost2010PropOp29
 70
     1
102
RTVSPost2010Prop30
280
     1
102
RTVSPost2010PropOp30
 70
     1
102
RTVSPost2010Prop31
280
     0
102
RTVSPost2010PropOp31
 70
     1
102
RTVSPost2010Prop32
280
     0
102
RTVSPost2010PropOp32
 70
     1
102
RTVSPost2010Prop33
280
     0
102
RTVSPost2010PropOp33
 70
     1
102
RTVSPost2010Prop34
280
     0
102
RTVSPost2010PropOp34
 70
     1
102
RTVSPost2010Prop35
280
     0
102
RTVSPost2010PropOp35
 70
     1
102
RTVSPost2010Prop36
280
     0
102
RTVSPost2010PropOp36
 70
     1
102
RTVSPost2010Prop37
 90
       50
102
RTVSPost2010PropOp37
 70
     1
102
RTVSPost2010Prop38
140
0.0
102
RTVSPost2010PropOp38
 70
     1
102
RTVSPost2010Prop39
140
1.0
102
RTVSPost2010PropOp39
 70
     1
102
RTVSPost2010Prop40
 90
        0
102
RTVSPost2010PropOp40
 70
     1
102
RTVSPost2010Prop41ColorIndex
 90
       18
102
RTVSPost2010Prop41ColorRGB
 90
        0
102
RTVSPost2010PropOp41
 70
     1
102
RTVSPost2010Prop42
 90
       50
102
RTVSPost2010PropOp42
 70
     1
102
RTVSPost2010Prop43
 90
        3
102
RTVSPost2010PropOp43
 70
     1
102
RTVSPost2010Prop44ColorIndex
 90
        5
102
RTVSPost2010Prop44ColorRGB
 90
      255
102
RTVSPost2010PropOp44
 70
     1
102
RTVSPost2010Prop45
280
     0
102
RTVSPost2010PropOp45
 70
     1
102
RTVSPost2010Prop46
 90
       50
102
RTVSPost2010PropOp46
 70
     1
102
RTVSPost2010Prop47
 90
       50
102
RTVSPost2010PropOp47
 70
     1
102
RTVSPost2010Prop48
 90
       50
102
RTVSPost2010PropOp48
 70
     1
102
RTVSPost2010Prop49
280
     0
102
RTVSPost2010PropOp49
 70
     1
102
RTVSPost2010Prop50
 90
       50
102
RTVSPost2010PropOp50
 70
     1
102
RTVSPost2010Prop51ColorIndex
 90
      256
102
RTVSPost2010Prop51ColorRGB
 90
-16777216
102
RTVSPost2010PropOp51
 70
     0
102
RTVSPost2010Prop52
140
1.0
102
RTVSPost2010PropOp52
 70
     0
102
RTVSPost2010Prop53
 90
        2
102
RTVSPost2010PropOp53
 70
     1
102
RTVSPost2010Prop54
  1
strokes_ogs.tif
102
RTVSPost2010PropOp54
 70
     1
102
RTVSPost2010Prop55
280
     0
102
RTVSPost2010PropOp55
 70
     1
102
RTVSPost2010Prop56
140
1.0
102
RTVSPost2010PropOp56
 70
     1
102
RTVSPost2010Prop57
140
1.0
102
RTVSPost2010PropOp57
 70
     1
  0
ENDSEC
  0
EOF
